&title=アレセイア
&artist=eufonius
&first=0.42
&des=Kondou
&lv_5=13
&inote_5=(150.5)
{8}
4,,,3>5[8:9],,,8h[8:8],,
,,,,,,,,
7,,,6pp3[8:9],,,2h[8:8],,
(152){8},,,,,,,,
(150){8}2x<5[8:12],,,,,,,,
(148){8}2xp5[8:4],,{8},,,,(150.5){8},,
4x/2hx[8:4],,4,,4,4,{16}4,2,,2,
{8}8b^5[8:2],,3,3h[8:2],,4h[8:2],,5,
5-3[8:1],,7-5[8:1],,1-7[8:1],,4,,
5^8[8:2],,2,2h[8:2],,1h[8:2],,3,
3^1[8:1],,5^7[8:1],,4p8[8:1],,5,,
7-3[8:2],,2,2h[8:2],,4h[8:2],,1,
1-7[8:1],,7-2[8:1],,2-6[8:1],,6-3[8:1],,
3V52[8:2],,,7,,5-8[8:1],,4qq5[8:5],
,,5x,,6x,,7x,,
8bqq5[8:4],8,1,1h[8:2],,,2,2p6[8:2],
,6<4[16:7],5h[8:4],,,,,,
6qq3[8:4],6,2,2h[8:2],,,1,1-4[8:1],
,4V28[8:2],,7,6,5,4x,,
6/2<4[8:3],,4,4>8[8:2],,7,6,5,
5-8[8:1],,3,3-6[8:1],,8,8,8xh[8:5]/5x,
,5,6,7,1b-6[8:1]*-4[8:1],,1b,,
7b^2[8:1]/3b,,3,3p7[8:1],,6,6qq3[8:4],,
8,,8,,1^4[8:1],,1,,
6-1[8:1],,2,2-6[8:1],,5,5-1V74[8:4],,1,
,2,,3-6[8:1],,3,,
7b^4[8:1],,4,2-6[8:1],,6,8<2[8:3],,
4,,1q7[8:2],,5,,8,,
6b/2b-6[8:1],,6,8^5[8:1],,4,2hb[8:5],,
3,4,5,6,7b/3,8b/4,1b/5,2b/6h[8:6],
,,,,,,8p4[8:1]/4-1[8:1],,
8b/4b<1[16:3],,2,3p7[8:1],,7pp3b[8:3],6,5bh[8:2],
,,5-8[8:1],,1^4[8:1]*^6[8:1],,1,,
5-8[8:1],5,1,2-5[8:1],2,5,6^1[8:1],
6,2,3^6[8:1],3,6,8bpp2[8:1]*qq6[8:1],8b,,,
7xV51[16:3]/1x,,4,4-8[8:1],,8-3-1-5b[8:3],7,6bh[8:2],
,,7-3[8:1],,1-4[8:1]*-6[8:1],,1,,
7/3-8[8:1],,4,4>6[8:2],,4/5h[8:2],,,
4-7[8:1],,2,2>8[8:2],,5bh[8:2]/2,,,
2b-5[8:1]/6b,,1/2,1V35[6:1],,81,7b,6b-8-2-4b[8:2],
,5,5-8[8:1],,5-1[8:1]*-2[8:1],,5b,,
7-3[8:1]/3,7,4,5-8[8:1],5,7,6-2[8:1],6,3,4-1[8:1],
4,7,6b-2b[8:1],6b,4x,,
7/3^8[8:1],,34,4p8[8:1],,45,6b,7b^4^1b[8:2],
,8,8-4[8:1],,1x^6[8:1],,12,4bxh[8:4],
,3,5,7,78,12,34,6b/5b-8[8:1],
,5b/4b>5b[8:3],,4b/3bh[8:3],,,,24,
5b/1bV38[16:3],,7,7-4-6[16:3],,3,3bqq4[16:5],,
7,,7p5[16:5],,3,,3,2,
1-7-2[16:3],,5,5V36[16:3],,1,1bqq2[16:5],,
5,,5p4[16:5],,2,,2,1,
8b-4-2[16:3],,7,7V51[16:3],,2,2bpp6[8:3],,
6,,5pp1[8:3],,1,,3,4,
5bV37[16:3],,6,6-2-8[16:3],,3,3b-7[8:1],,
5w1[8:1],,5,,73,62,15,8b/4b,
8^5[8:1]*^3[8:1],,8,,62,73,84,15,
1^6b[8:1]*^4b[8:1],,1b,,75,54,24,{16}1,1,
{8}8b,,6,75,,3,2^7[8:2]/4,,
5,,6^3[8:2],,8,,1-4[8:1],,
81,,6,6-1[8:1],,2-4[8:1],,5-8[8:1],
,1,1b^4[8:1],,1/6b^1[8:1],,6/2b-5[8:1],,
2/5b<4[8:3],6h[8:3],,,,,8-6[8:1],,
1-5[8:1],,2-4[8:1],,4,5,6,7,
8qq4[8:3],,4,4,,1>5[8:2],,5<1[8:2],
,1pp8[16:5],,5,,7,7,1,
8b/2bp6[8:1],,5,5^8[8:1],,1,1-3[8:1],,
8-4[8:1],,7-5[8:1],,5,4,3,2pp6[8:3],
,,6,6,,8,8,7pp3[8:3]/3,
,,3,3,,1,1,2/6,
6-2[8:1],,4-8[8:1],,7,6,5,15,
2-5[8:1],,7-4[8:1],,4,2b-6b[8:1],6b,8b,
