&title=Just A Trip
&artist=KillerBlood
&first=0
&des=阿抹AIMO
&lv_5=13
&inote_5=(180)
{1},
{8}8-5[8:1]/4,,,,6/2h[4:1],,5,5h[4:1],
{8},4h[4:1],,5h[4:1],,2h[4:1],,1,
{8}2-4[8:1],1,8,7,6h[4:1]/3,,4,4h[4:1],
{8},5h[4:1],,2h[4:1],,4h[4:1],,3,
{8}1-4[8:1]/5,,,,3/7h[4:1],,4,4h[4:1],
{8},5h[4:1],,4h[4:1],,7h[4:1],,8,
{8}7-5[8:1],8,1,2,3v6[4:1]/4,2h[8:2],,,
{8},,1h[4:3],,8,,6,,
{8}4-1[8:1]*-7[8:1],,,,8-6[8:1]/2,,5,5h[4:1],
{8},4-8[8:1],,2h[4:1],,6h[4:1],,1,
{8}8-5[8:1],1,2,3,4h[4:1]/6,,5,5h[4:1],
{8},6-2[8:1],,7h[4:1],,3h[4:1],,4,
{8}1-5[8:1]/5,,6,,7-4[8:1],,8,,
{8}3-1[8:1]/4,5,6,,7-3[8:1],7,8,1,
{8}2-5[8:1]/4,3,1,8,7bV51[8:3],,,,
{8},4,,3-8[8:1],3h[4:1],,,,
{16}2,1,8,7,6,5,4,3,12,,8,,7,,6,,
{8}5,4,3,2,1,3,6,8,
{32}2,1,3,,{8},,7,1,3,5,8,
{32}2,1,3,,{8},,7,1,2,4,5,
{16}7,8,7h[8:1],,1h[8:1],,5h[8:1],,{8}3,2,14,8,
{8}7,6,35,4,3,4,52,6,
{8}7,8,61,2,3V17[8:3],,,,
{8},6,6,5-1[8:1]*-2[8:1],,5,,2-5[8:1],
{8},4-8[8:1],,1,
{4}2,3,4,5,
{4}2,3,4-8[8:1],{8}8,,
{4}7,6,5,4,
{4}7,6,5-1[8:1],{8}1,,
{16}2h[16:3],,,4,3,,5,,4,,3,,5,,1,,
{16}2,,8,,3,,7,,4-8[8:1],,8,,8,,,,
{16}7h[16:3],,,5,6,,4,,5,,6,,4,,8,,
{16}7,,1,,6,,2,,5v3[8:1],3,5,3,5,,,,
{8}4-1[8:1],,1,8,7,6-4[8:1],,2h[4:1],
{8},5V38[8:2],,3h[8:2],,,37,,
{8}5-8[8:1],,8,2,3,4-1[8:1],,5h[4:1],
{8},8V24[8:2],,6,5,,6,7,
{8}8-3[8:1],2,,4-8[8:1],4,,6-3[8:1],5,
{8},1,1,2,3-8[8:1]/8,3,4,5h[4:1],
{16},,6h[16:3],,,7h[16:3],,,8h[16:3],,,1h[16:3],,,2-6[8:1],,
{8},8,8,,
{16}2,1,2,,28,,2,,{8}3/7-4[8:1],3,3,3h[4:1],
{8},4h[4:1],,1-6[8:1],,1/2,,5,
{8}6,7,18,2,3-5[8:1]/6,6,6,6h[4:1],
{8},5h[4:1],,7-4[8:1]*-3[8:1],,7,,3,
{8}1-4[8:1]/4-8[8:1],,,,7/5-2[8:1],7,7,7h[4:1],
{8},4h[4:1],,8-3[8:1],,78,,4,
{8}5,6,75,8,2V85[8:3]/1,3h[4:1],,,
{8},,4h[4:1],,8-6[8:1],,5h[4:1],,
{8}1-6[8:1]*-3[8:1],,,,7/3-6[8:1],7,7,7h[4:1],
{8},5h[4:1],,1-5[8:1],,18,,7,
{8}64,5,43,1,5-8[8:1]/2,2,2,2-4[8:1],
{8},12,,7-5[8:1],,87,,3,
{8}6-1[8:1]/1-4[8:1],,61,,2v5[8:1],,1,,
{8}6-8[8:1]/5,4,3,,2-6[8:1],2,1,8,
{8}7v4[8:1]/5,6,8,1,2bV84[8:3],,,,
{8},5,,6,1-5[8:1],1,7-4[8:1],7,{16}3,2,1,8,7,6,5,4,
{8}3h[8:1],8,7h[8:1],1,2-6[8:1],5,6,,
{8}7h[8:1],4,3h[8:1],5,6-8[8:1]/4v2[8:1],64,,,
{16}7,1,6-4[8:1],1,5,,1,,2,8,3-5[8:1],8,4,,8,,
{16}7,3,7,2,5,1,5,8,4v5[8:1],,7,,1,,3,,
{16}2b/4h[8:1],,3h[8:1],,5,4,6,,3b/5h[8:1],,4h[8:1],,6,5,7,,
{16}4b/6h[8:1],,5h[8:1],,7,6,8,,5b/7h[8:1],,6h[8:1],,8,1,7,,
{8}25,24,23,21,28,27,26,15,
{8}4b/8b,4b/8b,4b/8b,4b/8b,{16}8,4,1,5,2qq4[32:11]*q3[32:11],6,3,7,
{8},,,,,5p1[8:1]/7,,8p4[8:1]*v3[8:1],
{8},8,,2,2>5[8:1]/5,1,8,7,
{8}6h[4:1],,5,5>3[8:1],,51,,8p4[8:1]*q4[8:1],
{8},8,,6,8<5[8:1]/4>1[8:1],,48,,
{8}4q8[8:1],,2,2>5[8:1],,6h[4:1],,8q4[8:1]*v6[8:1],
{8},8,,7,7qq5[16:3]/4,8,1,2,
{8}3qq5[1:1],8bqq4[8:7],,,,,,,
{8},,,,{16}5-8[8:1],,,,2-6[8:1],,,,
{8}4<7[8:1]/2,,8,8pp7[16:5],,82,,3<6[8:1]*qq1[8:1],
{8},3,,2,2>5[8:1]/5,1,6,7,
{8}6v1[8:1]/8,,2,2p5[8:1]*v4[8:1],,2,,7v5[8:1]/8q4[8:1],
{8},78,,35,2q6[8:1]/6q2[8:1],,26,,
{8}1<6[8:1]/5,4,3,2,5-8[8:1]/4,3,2,1,
{8}7<4[8:1]/3,2,1,8,3-6[8:1]/8,1,2,2,
{1}3bpp8[1:1]/7bqq4[1:1],
{2},{16}2p3[8:1]*pp4[8:1],,,,2,,,,
{8}6-4[8:1],,6,3,4-7[8:1],2,4,1,
{8}7-3[8:1],1,7,8,1-3[8:1]/3-8[8:1],,13,,
{8}3-5[8:1],,3,6,5-2[8:1],7,5,8,
{8}2-6[8:1],8,2,1,8-6[8:1]/6-1[8:1],,86,,
{8}6>4[8:1],,6,3,5-8[8:1],2,5,4,
{8}1p5[8:1],3,1,2,8-3[8:1]/4-7[8:1],,48,,
{8}3<5[8:1],,3,6,4-1[8:1],7,4,5,
{8}8q4[8:1],6,8,7,1q5[8:1]/4>2[12:1],,14,,
{8}6/2v7[8:1],8,82,8<5[8:1],
{8},8>3[16:2],,8qq5[2:1],,5,4,3,
{8}2,1,8,7,6/4qq2[8:1],5,45,5<8[8:1],
{8},5>2[16:2],,5pp1[2:1],,8,1,2,3,4,5,6,
{8}7-4[8:1]/8,1,1/7V51[4:1],1,2,3,,8-4[8:1],
{8},8/1-5[8:1],,15,7v4[8:1]*q3[8:1],,7,,
{8}2-5[8:1]/1,8,8/2-8[8:1],8,7,5,3qq2[16:7]*p2[16:7],1b,
{8},,,,,31,4,5,
{8}68,1,25,34,5,6,37,64,
{8}5h[8:1],1h[8:1],3,24,{32}35,6,4,,{16},,,,48,,
{8}6h[8:1],1h[8:1],3,24,{32}35,6,4,,{16},,,,73,,
{8}6h[8:1],4h[8:1],2h[8:1],8h[8:1],{16}7,1,7h[8:1],,3h[8:1],,5h[8:1],,
{8}3,2,14,8,
{8}71,62,35,4,3,4,52,6,
{8}78,81,2/1p5[8:1],3,4qq4[8:3],,,,
{8},6,6,5-1[8:1]*-8[8:1],,5,,2v5[8:1],
{8},2/4q8[8:1],,41,
{16}2b,2,1,,{8}37,1b/8b,{16}6,6,5,,{8}4,53,
{8}2h[8:1],4h[8:1],8,62,{32}37,4,8,,{16},,,,53,,
{8}2h[8:1],4h[8:1],7,62,{32}37,4,8,,{16},,,,53,,
{12}2b,2,2,8b,8,8,{16}6,7,5,6,4,5,3,4,
{8}2b>7[1:1],,8,,,,1,,
{8},,8,,,,1,,
{8},,8,,,,1,1q5[8:1],
{8},5v2[8:1],,8p4[8:1],,4v7[8:1],,
{1},E
