&title=Agnostic
&artist=AiSS
&first=0
&lv_4=12+
&des_4=简心单视
&inote_4=
(167){4},,,,{8}6,
{4},{8}5,{4},4,
{8},3,{4},{8}4,5,{4}6,
{8}3,{4},{8}4,{4},5,
{8},6,{4},{8}5,4,{4}3,
{8}7,{4},{8}8,{4},1,
{8},2,{4},{8}1,8,7,6,
2,{4},{8}1,{4},8,
{8},7,{4},{8}8,1,2,3,
6h[8:9],{4},{8}5,{4},4,
{8},3,{4},{8}5,4,{4}5,
{8}3h[8:9],{4},{8}4,{4},5,
{8},6,{4},{8}4,5,{4}4,
{8}7h[8:9],{4},{8}5,{4},3,
{8},1,{4},{8}6,2,{4}6,
{8}2h[1:1],{4},{8}4,{4},6,
{8},8,{4},{8}3,7,{4}3,
6h[8:3],5,5,3h[8:3],
4,4,{8}5,5,{4}5,
6h[8:3],8,8,3h[8:3],
1,1,{8}4,4,{4}4,
{8}7x,5,6,5,6,5,6,5,
7x,4,8,4,8,4,8,4,
1x,1,3,3,5x,5,7,7,
{4}6x/4x,5x/3x,{8}5x/4x,5x/4x,{4}7bx/2bx,
6/5,2/8,{8}3,4,5,5,
6,5,4,4,5,6,7,7,
{4}2h[4:1],{8}8,1,,3,4,5,
6,6,5,4,3,3,4,5,
{4}7<4[4:1],4>1[4:1],8,{8}4,4,
3h[8:1],5,{4}2,{8}6h[8:1],4,{4}7,
8/1,5/4,{8}7,6,5,4,
2,3,4,5,6,5,4,3,
{4}2/4,8/7,{8}2,1,8,8,
7,8,1,1,8,7,6,6,
{4}3h[4:1],{8}5,4,,2,1,8,
7,7,8,1,2,2,1,8,
{4}7<4[2:1],3,2,1,
8>3[2:1],7,6,5,
{8}4x,4,2,2,8x,8,6,6,
{4}5x/4x,7x/2x,{8}6x/3x,3x/6x,{4}8bx/1bx,
{2}2h[4:3],{8}B5,E7,{4}B8,
{1}3<6[2:1],
{4}7h[4:3],{8}E6,E5,,E3,{4}E4,
{1}6>3[2:1],
{8}2,1,8,7,6,5,4,3,
E2,E1,E8,E7,E6,E5,E4,E3,
{4}8h[4:1],1h[4:1],{8},8,{4}7/2,
6x,5x,4x,3x,
{2}2-7[8:1],{8}6,6,5,5,
{2}4-1[8:1],{8}8,8,7,7,
{4}1h[8:3],{8}5,5,,3,{4}4/2>5[4:1],
5<8[4:1],8>3[4:1],5,5,
{8}6x/4x,3,5,3,5,3,5,3,
6x/4x,7,5,7,5,7,5,7,
4x,4,6,6,8x,8,2,2,
{4}1/3,4/7,3/5,8b/1b,
{2}6-1[8:1]/4-1[8:1],{8}3,3,2,1,
8,8,1,2,7,3,8,4,
{4}6h[8:3],{8}2,3,,4,5,6,
7,8,2,1,8,7,6,5,
{4}3q8[4:1],8q5[4:1],5,6,
7q4[4:1],4q1[4:1],1,2,
7/3,1/5,{8}6,6,7,8,
4,4,5,6,2,2,3,4,
{2}5-8[8:1]/3-8[8:1],{8}6,6,7,8,
1,1,8,7,2,6,1,5,
2,2h[4:1],6,6h[4:1],,5,4,3,
2,1,7,8,1,2,3,4,
5x,5,5,5,3,3,3,3,
4x,4,4,4,6,6,6,6,
1x,8,8,2,8x,1,1,7,
{4}8x/3x,1x/6x,{8}7/2,6/3,{4}5b/4b,
{8}3,3,4,4,5,5,6,6,
7,8,1,2,3,2,1,8,
6,6,5,5,4,4,3,3,
2,1,8,7,6,7,8,1,
2h[8:3],3,4,5,6h[8:3],7,8,1,
2,3,4,5,2,3,4,5,
6/2,2/6,7/3,7/3,8/4,4/8,7/3,7/3,
6/2,5,8/4,3,6<1[8:1]/2>5[8:1],1/5,{4},{8}2,
2,1,1,8,8,7,7,
6,5,4,3,2,3,4,5,
7,7,8,8,1,1,2,2,
3,4,5,6,7,6,5,4,
3h[8:3],2,1,8,7h[8:3],6,5,4,
{16}3x,2,1,8,7,6,5,4,{8}3-7[8:1],3,{4},{16}5x,
4,5,4,5,4,5,4,6x,3,6,3,6,3,6,3,
7x,2,7,2,8x,1,8,1,{8}7b/2b,6b/3b,{4}5b-8b[4:1]/4b-1b[4:1],
E
&lv_5=14
&des_5=简心单视
&inote_5=
(167){4},,,,{8}2,
{4},{8}5,{4},4,
{8},6,{4},{8}3,{16}5,4,{4}5,
{8}7,{4},{8}4,{4},5,
{8},3,{4},{8}6,{16}4,5,{4}4,
{8}1,{4},{8}7,{4},4,
{8},6,{4},{8}2,{16}8,1,{8}8,3,
7,{4},{8}4,{4},5h[4:1],
{8},3/6,{4},{8}7,{16}3,5,{8}4,6,
7h[2:3],{4},{8}1,{4},2,
{8},3,{4},{8}4,{16}6,5,{4}6,
{8}2h[2:3],{4},{8}8,{4},7,
{8},6,{4},{8}5,{16}3,4,{4}3,
{8}8h[2:3],{4},{8}5,{4},4,
{8},3,{4},{8}2,{16}8,1,{8}8,7,
1h[1:1],{4},{8}5,{4},6,
{8},7/2,{4},3/4,6/5,
7/8v3>1v4[4:5],7h[8:1],7,5,
6h[8:1],6,{8}8,{16}7,6,{4}5,
2/1v6<8v5[4:5],2h[8:1],2,4,
3h[8:1],3,{8}1,{16}2,3,{4}4,
{8}8x/3x,7,7,7,7,7,7,7,
6x/2x,3,3,3,3,3,3,3,
5x/4x,6,6,6,{16}4x,5,4,5,3,6,3,6,
1x,2,3,4,1x/5x,8,7,6,2x,3,4/7x,6,{4}1b/5x,
5-8[8:1]/2-5[8:1],5/2,{8}3,4,{16}6,5,6,5,
7,4,7,4,8,2,8,2,5,3,5,3,7,6,5,4,
{8}1-5[8:1],7-3[8:1],1,7,,2,1/5,{16}6,7,
{8}8,2,1/3,4,8,7,8/6,5,
{16}1,2,3,4,8,7,6,5,{8}3h[4:1],{16}2,1,8,7,6,5,
{8}2/4,3,7/5,{16}6,5,{8}6,4,5/3,{16}6/2,7/1,
{4}8-5[8:1]*-3[8:1],8,{8}4,2,{16}8/1,7,6,5,
8,1,2,3,8/4,7,6,5,2,3,4,5,6,7,8,1,
{4}2-5[8:1]/5-8[8:1],5/2,{8}3,4,{16}6,5,6,5,
7,4,7,4,5,2,5,2,4,3,4,3,8,1,8,1,
{8}7-3[8:1],2-6[8:1],7,2,,5,6/4,7,
{16}1,2,3,4,1/5,8,7,6,{8}1h[8:1],{16}7,8,{8}7,{16}6,5,
4x,3,4,3,{8}4,{16}6,5,{8}6,5,4,3,
2x/4x,5,{16}6,1,7,8,{8}6,2,4,{16}3,2,
{8}1x/6x,7,8,1,{16}2x,4,2,4,3,5,3,5,
1x,8,7,6,5/1x,4,3,2,1x/7x,6,5x/2x,3,{4}4x/8b,
3h[4:1],4h[4:1],{8}5,6,{4}7,
E3,E4,{8}E5,E6,{4}E7,
{8}7,5,6,4,,5,4,3,
E7,E5,E6,E4,,B5,B4,B3,
{16}8,7,6,5,1,2,3,4,{8}5h[8:1],6h[8:1],7h[8:1],8,
{16}B8,B7,B6,B5,B1,B2,B3,B4,{8}E6,E7,E8,E1,
{4}2h[4:1],4,{8}7,7,{16}3,4,5,6,
{4}7V51[4:1],8,2-7[8:1],6,
3/4,8/7,{8}6h[4:1],5,4,3,
{4}1/2,6/5,{8}7h[4:1],8,1,2,
6/3,4,7,6h[8:3],,5,4,3,
{16}2,1,8,7,6,5,4,3,{8}2-5[8:1],1,8,7,
6x/4x,4,4,4,7,7,7,7,
8x/2x,8,8,8,3,3,3,3,
5x/4x,6,7,8,{16}1x,8,1,8,2,7,2,7,
4x,3,2,1,8x/4x,5,6,7,1x-5[8:1],2,3/8x,7,{4}6x/1b,
7<4[8:1]/4>1[8:1],7/4,{8}8,1,{16}2,5,2,5,
4,7,4,7,3,8,3,8,1,6,1,6,2,3,4,5,
{8}8-4[8:1],2-6[8:1],8,2,,7,8/4,{16}3,2,
{8}1,8,7/5,6,1,5,4/2,3,
{16}7,5,6,4,5,3,4,2,{8}3h[8:1],{16}1,4,2,5,3,6,
3,8,2,7,1,6,8,5,{8}7h[8:1],5h[8:1],4,{16}6/3,7/2,
{4}8-4[8:1]/1-5[8:1],8/1,{8}6/3,7/2,{16}8/1,2,3,4,
5,8,7,6,5/4,3,2,1,8,7,6,5,4/8,3,2,1,
{4}8>3[8:1]/4<7[8:1],8/4,{8}4h[8:1],8h[8:1],{16}5,7,5,7,
2,8,2,8,3,4,3,4,2,5,1,6,8,7,8,7,
{8}6/1,4-8[8:1]/3-7[8:1],5/2,4/3,,6,1/5,2,
{16}4,2,5,3,6,4,7,5,{8}8<5[8:1],{16}4,4,{8}8-4[8:1],{16}3,3,
{8}8bx,2,2,1,1,8h[8:1],2h[8:1],5h[8:1],
4bx,6,6,5,5,4h[8:1],6h[8:1],1h[8:1],
7bx,{16}2,1,{8}2,3/4,2bx,{16}7,8,{8}7,6/5,
{16}1bx,2,3,4,7x,6,5,4,2x-6[8:1],3,4/7x,6,{4}5x/2b,
{16}7,4,5,2,6,8,4,2,7,1,5,3,6x,4,7,2,
5,3,1,2,6,4,7,8,5,1,4,2,7x,5,8,4,
1,2,8,3,7,4,6,5,7,8,6,1,5x,2,4,3,
5,4,6,5,6,3,4,3,6,5,7,3,4x,2,8,1,
7,8,6,1,7,2,6,3,7,4,6,5,8x,1,4,3,
5,2,6,3,7,2,8,3,1,2,7,3,5x,4,6,2,
{24}8,7,6,1,2,3,7,6,5,2,3,4,1,2,3,7,6,5,8,7,6,2,3,4,
{16}8,7,6,5,1,2,3,4,6,5,7,4,8,3,1,1,
2,4,3,5,1,7,8,6,2,5,4,7,3x,8,1,6,
2,4,8,6,4,8,3,1,5,7,1,5,2x,4,8,6,
1,7,2,8,3,1,4,7,5,6,2,1,3x,7,8,6,
1,4,2,5,3,6,4,7,5,6,8,7,3x,4,2,1,
3x,8,4,7,4,6,4,5,4,3,4,2,4,1,4,8,
{24}4,3,2,1,8,7,6,5,4,3,2,1,{32}6,5,4,3,2,1,8,7,6,5,4,3,2,1,8,7,
{24}2x,3,4,1,2,3,8,1,2,7,8,1,3x,4,5,6,7,8,5,4,3,2,1,8,
{32}7x/3x,4,5,6,7,8,1,2,3x/8x,4,5,6,7,8,1,2,{8}5bx/3bx,7bx/6bx,{4}2bx-6-8>4[1:1]/8bx-4[8:1],
{1}8b/2b,
E
