&title=ANU
&artist=sasakure.UK VS 穴山大辅
&first=0
&des=テイルスター VS Tail_R
&lv_5=14+
&inote_5=(220)
{1},
{1},
{24}1b/8b,2/7,3/6,4>5[4:13]/5<4[4:13],,,,,,,,,,,,,,,,,,,,,
{1},
{1},
{1},
{8}3qq6[1:1],,,,8,,7,,
{8}6>1[2:1],,,,8,,,,
{6}2x/4,3/5,4/6,5x/7,6/8,1/7,
{16}2,8,2,8,2,8,2,8,2,8,2,8,2,8,2,8,
(240)
{8}2xh[4:1],,,2z6[8:3],,2h[4:1],,,
{8}3h[4:1],,,3s7[8:3],,3h[4:1],,,
{8}4h[4:1],,,4z8[8:3],,4h[4:1],,,
{8}5h[4:1],,,5-1[4:1]*-2[4:1],,,,,
{8}7h[4:1],,,7s3[8:3],,7h[4:1],,,
{8}6h[4:1],,,6z2[8:3],,6h[4:1],,,
{8}5h[4:1],,,5s1[8:3],,5h[4:1],,,
{8}4h[4:1],,3,3,2-7[8:1]/5-8[8:1],,,,
{8}1h[4:1],,7,7,6/8,7,1h[4:1]/5,,
{8}6h[4:1],,4,4,5/3,4,2h[4:1]/6,,
{8}7h[4:1],,1,1,8/2,1,3h[4:1]/7,,
{8}5,5,4,6,3-7[8:1]/7,2/8,,,
{8}8h[4:1],,2,2,3/1,2,8h[4:1]/4,,
{8}3h[4:1],,5,5,4/6,5,7h[4:1]/3,,
{8}2h[4:1],,8,8,1/7,8,6/2,2hb[8:3]/6,
{16},,,,8x,7x,1x,2x,8x,7x,1x,2x,8xw4[8:1],,,,
{1}8qq2[4:10]/Cf,
{1},
{1},
{8},,3,5,4h[4:9],,,,
{1},
{8},,,,,,6z2^1V75[1:1],,
{1},
{8}3h[8:3],,,5-7[8:1],,1-5[8:1],,8h[8:3],
{8},,4,7,5,6,4h[8:3],,
{8},8-4[8:1],,3-8[8:1],,5h[8:3],,,
{8}2,4,3,5,2h[8:3],,,6-4[8:1],
{8},2-6[8:1],,8h[8:3],,,5,7,
{16}4,,6,,3,4,3,4,3,,7,5,7,5,7,,
{16}2,1,2,1,2,,7,1,7,1,7,,2,6,2,6,
{8}2b,4,3,3,2-8[8:1]/4,,7,7-5[8:1],
{8},4,4-1[8:1],,5,5,8,6,
{8}7,7,8-2[8:1]/6,,5,5-7[8:1],,1,
{8}1-5[8:1],,7,7,4,6,5,5,
{8}6/4-2[8:1],,1,1-7[8:1],,3,3-8[8:1],,
{8}6,6,1,7,8,8,1/7,1/7,
{8}2xz6[8:3],7xs3[4:1],,,,,,,
{8}7,5,6,6,7v1[8:1]/5,,2,2^4[8:1],
{8},5,5v8[8:1],,4,4,1,3,
{8}2,2,1v7[8:1]/3,,4,4^2[8:1],,8,
{8}8-4[8:1],,2,2,5,3,4,4,
{8}3/5v7[8:1],,8,8^2[8:1],,6,6h[4:1],,
{8}1,2,{16}3,4,3,4,2x,,7,5,7,5,8x,,
{16}2,1,2,1,3x,,7,8,7,8,6x,,4,5,4,5,
{16}3bx-7[8:1],,,,7/3,6,5b-1[8:1],,,,1/5,2,3bpp5[16:3]*qq1[16:3],,,,
{8},,,,2h[8:1],4h[8:1],3h[8:1],5h[8:1],
{16}2h[8:1],,4h[8:1],,E2,B1,B8,E8,E6,B5,B4,E4,A2/B2/E3,,,,
{16}8b-4[8:1],,,,8/4,3,2b-6[8:1],,,,6/2,7,8bz4[4:1],,,,
{16},,,,,,,,6h[8:1],,4h[8:1],,7h[8:1],,5h[8:1],,
{16}6h[8:1],,4h[8:1],,E7,B6,B5,E5,E3,B2,B1,E1,A6/E6/D6,,,,
{16}4b-8[8:1],,,,8/4,7,6b-2[8:1],,,,2/6,3,4bpp5[4:1]*qq3[4:1],,,,
{16},,,,,,,,3h[8:1],,5h[8:1],,2h[8:1],,4h[8:1],,
{16}3h[8:1],,5h[8:1],,E3,B3,B4,E5,E7,B7,B8,E1,A4/E4/D4,,,,
{16}7b-3[8:1],,,,7/3,2,1b-5[8:1],,,,5/1,6,7b-1s5[2:1]*z3[2:1],,,,
{1},
(200)
{8}3/4,,,,2/1,,,,
{8}7/8,,,,5h[4:1]/6h[4:1],,,,
{8}1/8,,,2/5,,,,7/4,
{8},,,3h[8:3]/6h[8:3],,,,,
{8}2`1,,,,3`4,,,,
{8}5`6,,,,7h[4:1]`8h[4:1],,,,
{8}5/7h[4:1],4,3,6h[4:1]/4,3,2,5h[4:1]/3,2,
{8}1,4h[4:1]/2,1,8,
(151)
{16}7b/5b,,1,1,8,,6,6,5,,7/4,,2,2,4,3,
{16}5,,7,7,8,,4,4,5-1[8:1],,3/6,,5,,2,,
{12}8x,1,2,7,1,2,6,1,2,5,1,2,
{16}4,3,4,2,4,1,4,8,5,8,6,8,7,8,7,1,
(156)
{16}2xb/6xb,,1,1,8,,6,6,5,,7/4,,2,2,4,3,
{16}5,,7,7,8,,4,4,5,,3x/6x,,2,2,8,1,
{16}7x,,5,5,6,,1,1,7-5[8:1],,3-1[8:1],,7,,3,,
{16}4,,3/5,,1,1,2,2,3,3,4,4,5,5,6,6,
(161)
{16}7b,,1,1,8,,6,6,5,,7/4,,2,2,4,3,
{16}5,,7,7,8,,4,4,5,,3x/6x,,2,2,8,1,
{16}7x,,5,5,6,,1,1,7-4[8:1],,3-8[8:1],,7,,3,,
{16}4,,3/5,,1,1,2,2,3,3,4,4,5,5,6,6,
(166)
{16}7b,,1,8,1,,6,5,6,,7/4,,2,4,3,4,
{16}2h[8:1],,6,5,6,,4,5,4,,3x/6x,,2,1,2,1,
(171)
{16}3b,,6,5,7,,2,1,3^8[8:1],,7^4[8:1],,3,,7,,
(176)
{16}3b,,6/1,,2,5,3,4,1,6,3,4,8,7,3,4xz8[16:9],
(162)
{4},,,,
(149.2)
{4}5<4[16:8],,5<4[32:15],,5<4[32:14],,5<4[32:13],,5<4[32:12],,5<4[32:11],,5<4[32:10],,5<4[32:9],,5<4[32:8],,{16}5<4b[32:7],,,
(167)
{16},,,,,,,,,
(220)
{16}2,3,2,3,2,3,2,3,2,3,2,3,2,3,2,3,2,3,2,3,2,3,2,3,2,3,2,3,2,3,2,3,2,3,2,3,2,3,2,3,,,,,,,,,
(240)
{8}4bV27[4:1]/6b,,7V15[4:1],7,,6,6,,
{8}5V72[4:1]/3,,2V84[4:1],2,,3,3,3,
{16}5-8[8:1],,,,1-4[8:1],,,,7-2[8:1],,,,3-6[8:1],,,,
{8}8-4[8:1],8,3-8[8:1],3,5-1[8:1]*-2[8:1],5,,,
{8}8xV63[4:1]/3x,,3V51[4:1],3,,2,2,,
{8}1V36[4:1]/7,,6V48[4:1],6,,7,7,7,
{8}2-5[8:1],,6-1[8:1],,4w8[8:1],,4,,
{16}2/6,,3/7,,4/8,,5/1,,6,8,6,8,5,7,5,7,
{8}4bxV26[4:1],,6-1-5[4:1],6,,7,7,,
{8}5V73[4:1]/4,,3-8-4[4:1],3,,2,2,2,
{16}6-1[8:1],,,,2-5[8:1],,,,7-4[8:1],,,,3-8[8:1],,,,
{8}5-1[8:1],5,2-5[8:1],2,8-3[8:1]*-5[8:1],,8b,,
{16}2x,3,4,5,8,7,6,5,1,2,3,4,7,6,5,4,
{16}8x,1,2,3,7,6,5,4,2,3,4,5,1,8,7,6,
{16}3x,4,3,4,3,4,3,4,2,5,2,5,2,5,2,5,
{16}1,6,1,6,1,6,1,6,1xbw5[8:1],,,,,,,,
{8}2b>8[4:1]/6b,,8p2[4:1],8,,1,1,,
{8}7<1[4:1]/4,,1q7[4:1],1,,8,8,8,
{8}6-3[8:1],,2-7[8:1],,5-8[8:1],,1-4[8:1],,
{8}7-3[8:1],7,2-5[8:1],2,6-1[8:1]*-2[8:1],6,,,
{8}3b>5[4:1]/8b,,5q3[4:1],5,,4,4,,
{8}6<4[4:1]/1,,4p6[4:1],4,,5,5,5,
{8}2-6[8:1],,4-8[8:1],,1w5[8:1],,1,,
{16}3/7,,2/6,,5/1,,8/4,,8-3[8:1]/4-7[8:1],,,,8b/4b,,,,
{16}3x-1[8:1],,4-8[8:1],,3,,4,,2x,3,4,5,1x,8,7,6,
{16}2x-4[8:1],,1-5[8:1],,2,,1,,3x,2,1,8,4x,5,6,7,
{16}2x-5[8:1],,1-6[8:1],,2,,1,,4x,3,2,1,5x,6,7,8,
{16}1x-5[8:1],,8-4[8:1],,1,,8,,1bx^6b[8:1]*^4b[8:1],,,,,,,,
{16}2x,3,4,5,2,3,4,5,1,2,3,4,1,2,3,4,
{16}7,6,5,4,7,6,5,4,8,7,6,5,8,7,6,5,
{16}1bx,8,7,6,5,4,3,2,8bx,1,2,3,4,5,6,7,
{16}3,1,3,1,3,1,3,1,3b-6[8:1],,,,,,,,
{16}8bx-4[8:1],,,,8/4,3,2b-5[8:1],,,,2/6,7,8bqq6[4:1]*pp2[4:1],,,,
{8},,,,4h[8:1],5h[8:1],3h[8:1],6h[8:1],
{8}4h[8:1],5h[8:1],{16}A1,E1,E8,A7,A3,E4,E5,A5,Cf,,,,
{16}6bx-1[8:1],,,,6/2,3,4b-8[8:1],,,,8,7,6bz2[4:1],,,,
{16},,,,,,,,1h[8:1],,6h[8:1],,8h[8:1],,7h[8:1],,
{16}1h[8:1],,6h[8:1],,A3,E3,E2,A1,A7,E7,E6,A5,Cf,,,,
{16}4bx-8[8:1],,,,4/8,7,6b-1[8:1],,,,6/2,3,4bqq3[4:1]*pp5[4:1],,,,
{8},,,,3h[8:1],6h[8:1],4h[8:1],5h[8:1],
{8}3h[8:1],6h[8:1],{16}A1,E1,E8,A7,A3,E4,E5,A5,Cf,,,,
{16}2bx-5[8:1],,,,2/6,7,8b-4[8:1],,,,4,3,2bz6[4:1],,,,
{16},,,,,,,,3h[8:1],,5h[8:1],,1h[8:1],,7h[8:1],,
{16}2h[8:1],,4h[8:1],,1h[8:1],,8h[8:1],,4bxw8[8:1],,,,,,,,
{8}2bh[4:1],,,3hx[4:1]/4hx[4:1],,,5hb[4:1]/4hb[4:1],,
{8},6hx[4:1]/5hx[4:1],,,7bh[4:1]/8bh[4:1],,,2xh[4:1]/1hx[4:1],
{8},,3hb[4:1]/5bh[4:1],,,1xh[4:1]/7hx[4:1],,,
{12}2x,4,2,5x,3,5,4x,6,4,7x,5,7,
{12}2x,4,3,5x,3,4,3x,5,4,5x,4,6,
{16}2bx,4,2,4,2,4,2,4,2,4,2,4,2,4,2,4,
{16}1bx,5,1,5,1,5,1,5,1,5,1,5,1,5,1,5,
{16}8bx,6,8,6,8,6,8,6,8,6,8,6,8,6,8,6,
{16}7bx,7,7,7,7,7,7,7,7,7,7,7,7,7,7,7,
{1}7bxqq4[2:3]*pp3[2:3],
&inote_6=(220)
{1},
{1},
{24}1b/8b,2/7,3/6,4>5[4:13]/5<4[4:13],,,,,,,,,,,,,,,,,,,,,
{1},
{1},
{1},
{8}3qq6[1:1],,,,8,,7,,
{8}6>1[2:1],,,,8,,,,
{6}2x/4,3/5,4/6,5x/7,6/8,1/7,
{16}2,8,2,8,2,8,2,8,2,8,2,8,2,8,2,8,
(240)
{8}2xh[4:1],,,2z6[8:3],,2h[4:1],,,
{8}3h[4:1],,,3s7[8:3],,3h[4:1],,,
{8}4h[4:1],,,4z8[8:3],,4h[4:1],,,
{8}5h[4:1],,,5-1[4:1]*-2[4:1],,,,,
{8}7h[4:1],,,7s3[8:3],,7h[4:1],,,
{8}6h[4:1],,,6z2[8:3],,6h[4:1],,,
{8}5h[4:1],,,5s1[8:3],,5h[4:1],,,
{8}4h[4:1],,3,3,2-7[8:1]/5-8[8:1],,,,
{8}1h[4:1],,7,7,6/8,7,1h[4:1]/5,,
{8}6h[4:1],,4,4,5/3,4,2h[4:1]/6,,
{8}7h[4:1],,1,1,8/2,1,3h[4:1]/7,,
{8}5,5,4,6,3-7[8:1]/7,2/8,,,
{8}8h[4:1],,2,2,3/1,2,8h[4:1]/4,,
{8}3h[4:1],,5,5,4/6,5,7h[4:1]/3,,
{8}2h[4:1],,8,8,1/7,8,6/2,2hb[8:3]/6,
{16},,,,8x,7x,1x,2x,8x,7x,1x,2x,8xw4[8:1],,,,
{1}8qq2[4:10]/Cf,
{1},
{1},
{8},,3,5,4h[4:9],,,,
{1},
{8},,,,,,6z2^1V75[1:1],,
{1},
{8}3h[8:3],,,5-7[8:1],,1-5[8:1],,8h[8:3],
{8},,4,7,5,6,4h[8:3],,
{8},8-4[8:1],,3-8[8:1],,5h[8:3],,,
{8}2,4,3,5,2h[8:3],,,6-4[8:1],
{8},2-6[8:1],,8h[8:3],,,5,7,
{16}4,,6,,3,4,3,4,3,,7,5,7,5,7,,
{16}2,1,2,1,2,,7,1,7,1,7,,2,6,2,6,
{8}2b,4,3,3,2-8[8:1]/4,,7,7-5[8:1],
{8},4,4-1[8:1],,5,5,8,6,
{8}7,7,8-2[8:1]/6,,5,5-7[8:1],,1,
{8}1-5[8:1],,7,7,4,6,5,5,
{8}6/4-2[8:1],,1,1-7[8:1],,3,3-8[8:1],,
{8}6,6,1,7,8,8,1/7,1/7,
{8}2xz6[8:3],7xs3[4:1],,,,,,,
{8}7,5,6,6,7v1[8:1]/5,,2,2^4[8:1],
{8},5,5v8[8:1],,4,4,1,3,
{8}2,2,1v7[8:1]/3,,4,4^2[8:1],,8,
{8}8-4[8:1],,2,2,5,3,4,4,
{8}3/5v7[8:1],,8,8^2[8:1],,6,6h[4:1],,
{8}1,2,{16}3,4,3,4,2x,,7,5,7,5,8x,,
{16}2,1,2,1,3x,,7,8,7,8,6x,,4,5,4,5,
{16}3bx-7[8:1],,,,7/3,6,5b-1[8:1],,,,1/5,2,3bpp5[16:3]*qq1[16:3],,,,
{8},,,,2h[8:1],4h[8:1],6h[8:1],8h[8:1],
{16}2h[8:1],,4h[8:1],,E2,B1,B8,E8,E6,B5,B4,E4,A2/B2/E3,,,,
{16}8b-4[8:1],,,,8/4,3,2b-6[8:1],,,,6/2,7,8bz4[4:1],,,,
{16},,,,,,,,6h[8:1],,4h[8:1],,2h[8:1],,8h[8:1],,
{16}6h[8:1],,4h[8:1],,E7,B6,B5,E5,E3,B2,B1,E1,A6/E6/D6,,,,
{16}4b-8[8:1],,,,8/4,7,6b-2[8:1],,,,2/6,3,4bpp5[4:1]*qq3[4:1],,,,
{16},,,,,,,,3h[8:1],,5h[8:1],,7h[8:1],,1h[8:1],,
{16}3h[8:1],,5h[8:1],,E3,B3,B4,E5,E7,B7,B8,E1,A4/E4/D4,,,,
{16}7b-3[8:1],,,,7/3,2,1b-5[8:1],,,,5/1,6,7b-1s5[2:1]*z3[2:1],,,,
{1},
(200)
{8}3/4,,,,2/1,,,,
{8}7/8,,,,5h[4:1]/6h[4:1],,,,
{8}1/8,,,2/5,,,,7/4,
{8},,,3h[8:3]/6h[8:3],,,,,
{8}2`1,,,,3`4,,,,
{8}5`6,,,,7h[4:1]`8h[4:1],,,,
{8}5/7h[4:1],4,3,6h[4:1]/4,3,2,5h[4:1]/3,2,
{8}1,4h[4:1]/2,1,8,
(151)
{16}7b/5b,,1,,1,,6,5,7,,2/8,,3,4,2,5,
{16}1,,7,8,6,,4,5,3,,1/8,,6,5,7,4,
{12}8x,8,1,7,7,5,6,6,8,5,5,4,
{16}8,1,7,2,6,3,5,4,6,5,7,4,Cf,,,,
(156)
{16}2b/4b,,8,1,7,,3,4,2,,7/1,,6,5,7,4,
{16}8,,2,1,3,,5,4,6,,8x/1x,,3,4,2,5,
{16}1x,,6,5,7,,1,8,2-4[8:1],,6-8[8:1],,2,,6,,
{16}4,,2/1,,6,5,6,5,7,4,7,4,8,3,8,3,
(161)
{16}8b,,1,8,2,,6,5,7,,2/8,,3,4,2,5,
{16}1,,7,8,6,,4,5,3,,1x/8x,,6,5,7,4,
{16}8x,,3,4,2,,8,1,7-4[8:1],,3-8[8:1],,7,,3,,
{16}6,,1/7,,3,4,3,4,2,5,2,5,1,6,1,6,
(166)
{16}1b,,7,5,6,,1,8,2,,4/6,,2,1,3,8,
{16}2,,5,4,6,,2,1,3,,5/6,,1,8,2,7,
(171)
{16}3b,,6,5,6,,2,1,2^5[8:1],,6^1[8:1],,2,,6,,
(176)
{16}3b,,2/8,,7,4,6,5,8,3,6,5,1,2,6,5x<4[16:16],
(162)
{4},,,,
(149.2)
{4}5<4[16:8],,5<4[32:15],,5<4[32:14],,5<4[32:13],,5<4[32:12],,5<4[32:11],,5<4[32:10],,5<4[32:9],,5<4[32:8],,{16}5<4b[32:7],,,
(167)
{16},,,,,,,,,
(220)
{16}2,3,2,3,2,3,2,3,2,3,2,3,2,3,2,3,2,3,2,3,2,3,2,3,2,3,2,3,2,3,2,3,2,3,2,3,2,3,2,3,,,,,,,,,
(240)
{8}4bV27[4:1]/6b,,7V15[16:5],7,,6,6,,
{8}8V63[4:1]/2,,3V51[16:5],3,,2,2,2,
{8}8^5[8:1],8,,,,,,,
{8},,,,,,,,
{8}3pp5[4:1]/7,,5p1[4:1],5,,6,6,,
{8}6qq4[4:1]/2,,4q8[4:1],4,,3,3,,
{8}1x-5[8:1]/7x-5[8:1],,,,4x-8[8:1]*-2[8:1],,,,
{8}1/7,1/7,2/6,2/6,3/5,3/5,4b,,
{8}2V41[4:1]/6,,1-5[4:1],1,,8,8,,
{8}7V58[4:1]/3,,8-4[4:1],8,,1,1,,
{8}3x-7[8:1]*-8[8:1],,,,1x-3[8:1]/6x-4[8:1],,,,
{4}2^7[8:1],6-1[8:1],4w8[8:1],4,
{16}2x,3,4,5,8,7,6,5,1,2,3,4,7,6,5,4,
{16}8x,1,2,3,7,6,5,4,2,3,4,5,1,8,7,6,
{16}3x,4,3,4,3,4,3,4,2,5,2,5,2,5,2,5,
{16}1,6,1,6,1,6,1,6,1xbw5[8:1],,,,,,,,
{8}3V16[4:1]/5,,6V48[4:1],6,,7,7,,
{8}6V84[4:1]/2,,4-7-1[4:1],4,,3,3,3,
{8}8x-4[8:1]/3x-8[8:1],,,,1x-5[8:1]/6x-1[8:1],,,,
{8}2-5[8:1],4,2,6,7-3[8:1]*-4[8:1],8,,,
{8}2>8[4:1]/5,,8p2[4:1],8,,1,1,,
{8}7<1[4:1]/4,,1q7[4:1],1,,8,8,,
{8}3x-8[8:1]/6x-2[8:1],,,,1x-5[8:1]/7x-4[8:1],,,,
{8}3/7,3/7,2/6,2/6,1/5,1/5,8b/4b,,
{16}2-6[8:1],,1-7[8:1],,2,,1,,2,3,4,5,1,2,3,4,
{16}8,,8,,7,,7,,8,7,6,5,1,8,7,6,
{16}3,,3,,4,,4,,1,2,3,4,8,1,2,3,
{16}5,,5,,6,,6,,8b^3b[8:1]*^5b[8:1],,,,,,,,
{16}1x,2,3,4,1,2,3,4,8,1,2,3,8,1,2,3,
{16}7,6,5,4,7,6,5,4,8,7,6,5,8,7,6,5,
{16}1bx,8,7,6,5,4,3,2,8bx,1,2,3,4,5,6,7,
{16}3,1,3,1,3,1,3,1,3b-6[8:1],,,,,,,,
{16}8bx-4[8:1],,,,8/4,3,2b-5[8:1],,,,2/6,7,8bqq6[4:1]*pp2[4:1],,,,
{8},,,,4h[8:1],5h[8:1],2h[8:1],1h[8:1],
{8}3h[8:1],4h[8:1],{16}A1,E1,E8,A7,A3,E4,E5,A5,Cf,,,,
{16}6bx-1[8:1],,,,6/2,3,4b-8[8:1],,,,8,7,6bz2[4:1],,,,
{16},,,,,,,,1h[8:1],,7h[8:1],,3h[8:1],,5h[8:1],,
{16}8h[8:1],,6h[8:1],,A3,E3,E2,A1,A7,E7,E6,A5,Cf,,,,
{16}4bx-8[8:1],,,,4/8,7,6b-1[8:1],,,,6/2,3,4bqq3[4:1]*pp5[4:1],,,,
{8},,,,4h[8:1],5h[8:1],2h[8:1],1h[8:1],
{8}3h[8:1],4h[8:1],{16}A1,E1,E8,A7,A3,E4,E5,A5,Cf,,,,
{16}2bx-5[8:1],,,,2/6,7,8b-4[8:1],,,,4,3,2bz6[4:1],,,,
{16},,,,,,,,3h[8:1],,5h[8:1],,1h[8:1],,7h[8:1],,
{16}2h[8:1],,4h[8:1],,1h[8:1],,8h[8:1],,4bxw8[8:1],,,,,,,,
{8}2/6,,1,2/8,,7,6/8,,
{8}3,2/4,,6,5/7,,3,2/4,
{8},8/7,6/1,,3/4,2/5,,1/8,
{12}2x,3,4,8x,7,6,1x,2,3,7x,6,5,
{12}2x,3,4,8x,7,6,1x,2,3,7x,6,5,
{12}1x,2,8,7,1,2,8,7,1,2,8,7,
{16}3x,4,6,5,3,4,6,5,3,4,6,5,3,4,6,5,
{12}1xh[24:1],2xh[24:1],8xh[24:1],7xh[24:1],1xh[24:1],2xh[24:1],8xh[24:1],7xh[24:1],1xh[24:1],2xh[24:1],8xh[24:1],7xh[24:1],
{16}3xh[32:1],4xh[32:1],6xh[32:1],5xh[32:1],3xh[32:1],4xh[32:1],6xh[32:1],5xh[32:1],3xh[32:1],4xh[32:1],6xh[32:1],5xh[32:1],3xh[32:1],4xh[32:1],6xh[32:1],5xh[32:1],
{1}1bxqq6[2:3]*pp5[2:3],
