&title=双截棍
&artist=周杰伦
&first=0.1
&lv_5=13
&des_5=-NICOLABULA-
&inote_5=
(202){4},,,,{1}7h[2:3]/3h[2:3],
{4},,,7/3,
{1}2h[2:3]/6h[2:3],
{4},,,7/3,
{1}8h[2:3]/2h[2:3],
{4},,,8/2,
{1}1qq6[2:3]*pp4[2:3],
,{2}6h[4:1]/4b-1[8:1],
3h[4:1]/5-8[8:1],
7h[4:1]/4-1[8:1],2h[4:1]/5-8[8:1],
7h[4:1]/1b-4[8:1],2h[4:1]/8-5[8:1],
6h[4:1]/1-4[8:1],3h[4:1]/8-5[8:1],
6h[4:1]/3-6[8:1],2h[4:1]/7-2[8:1],
6h[4:1]/3-6[8:1],2h[4:1]/7-2[8:1],
4h[4:1]/1-4[8:1],8h[4:1]/5-8[8:1],
4h[4:1]/1-4[8:1],8h[4:1]/5-8[8:1],
{4}6h[4:1]/4b-1[8:1],4,3h[4:1]/5-8[8:1],5,
7h[4:1]/4-1[8:1],4,2h[4:1]/5-8[8:1],5,
7h[4:1]/1b-4[8:1],1,2h[4:1]/8-5[8:1],8,
6h[4:1]/1-4[8:1],1,3h[4:1]/8-5[8:1],8,
6h[4:1]/3-6[8:1],3,2h[4:1]/7-2[8:1],7,
6h[4:1]/3-6[8:1],3,2h[4:1]/7-2[8:1],7,
4h[4:1]/1-4[8:1],1,8h[4:1]/5-8[8:1],5,
4h[4:1]/1-4[8:1],1,8h[4:1]/5-8[8:1],5,
7,{8}4,5,3,4,3,{16}3,4,
{8}2h[8:1],4,3,4h[2:1],,1,,8,
,2,5,4,6,5,6,4,
5,3,4,3h[2:1],{4},{8},8b,
,3,3,5,4,4,6,5,
7,E4,B6,E2,6,4-1>2[4:1],5,4,
,7,7,4,6,6,3,5,
{2}5p6[4:1],4<5-7>8[4:1]*>3-1<8[4:1],
{8},3,3,5,5,4,4,4,
6,6,6,4,5,3,{4}4,
{8},3,5,4,7,5,6,6,
2,4,3,7,5,6,3,3,
,7,5,6,4,5,3,6,
{2}4-1[8:1]/5-8[8:1],{8}7,3,6,4,
,6,6,4,5,5,3,4,
2,2,{4}2h[4:1],{8}6,6,{4}6h[4:1],
{2}2-7-1[4:1],6-3-5[4:1],
{8},2,3,4,5,6,6,6,
{2}2-7-1[4:1],6-3-5[4:1],
{8},2,3,4,5,6,6,6,
{2}1-4-2[4:1],5-8-6[4:1],
{8},2,3,4,5,6,6,6h[4:1],
,4,5,3,4,2,2,2,
{4}2-6[4:1],6-2b[4:1],{2},{8}1b,
{4},{8}4h[8:1],1,4,2,5,
1b,6,,6,,6-3[8:1],,6,
,2-5[8:1],2,2,1b,1,3,8,
2,7,4,8,{4}8-4[8:1],8,
,{8}1b,5,2,6,4,7,
3,6,2,4,{4}3h[4:1],{8}1b,4,
7,3,{4}5h[8:3],{8},4,6,3,
4,1,{4}8-5[8:1]*-3[8:1],{2}C,
2-7-1[4:1],6-3-5[4:1],
{8},2,3,4,5,6,6,6,
{2}2-7-1[4:1],6-3-5[4:1],
{8},2,3,4,5,6,6,6,
{2}1-4-2[4:1],5-8-6[4:1],
{8},2,3,4,5,5,{4}5w1b[8:1],
{2}5b,{64}6x/A2f,B2,C,B6,{16}A6,{2},{8}3,
4,5,6,6,{4}6h[4:1],
{32}A2f,B2,{16}C,{8},{32}3x/A7f,B7,{16}C,{8},{32}6x/A2f,B2,{16}C,{8},{32}3x/A7f,B7,{16}C,{4},{8}3,
4,5,6,6,{4}6h[4:1],
{32}A2f,B2,{16}C,{8},{32}3x/A7f,B7,{16}C,{8},{32}6x/A2f,B2,{16}C,{8},{32}3x/A7f,B7,{16}C,{4},{8}3,
4,5,6,6,{4}6-8[8:1],
E7f/4-1[8:1],E4f/5-8[8:1],E6f/3-1[8:1],4h[8:3]/E3f,
{8},3,4,5,6,6,{4}6-8[8:1],
E7f/4-1[8:1],E4f/5-8[8:1],E6f/3-1[8:1],4h[8:3]/E3f,
{8},3,4,5,6,6,{4}6h[4:1],
{32}A2f,B2,{16}C,{8},{32}3x/A7f,B7,{16}C,{8},{32}6x/A2f,B2,{16}C,{8},{32}3x/A7f,B7,{16}C,{4},{8}3,
4,5,6,6,{4}6h[4:1],
{32}A2f,B2,{16}C,{8},{32}3x/A7f,B7,{16}C,{8},{32}6x/A2f,B2,{16}C,{8},{32}3x/A7f,B7,{16}C,{4},{8}3,
4,5,6,6,{4}6-8[8:1],
E7f/4-1[8:1],E4f/5-8[8:1],E6f/3-1[8:1],4h[8:3]/E3f,
{8},3,4,5,6,6,{4}6-8[8:1],
E7f/4-1[8:1],E4f/5-8[8:1],E6f/3-1[8:1],4h[4:1]/E3f,
{64}A2f,B2,C,B6,{16}A6,{2},{8}2,2,2,
{4}5h[4:1],{8}3,5,{4}5h[4:1],{8}4,5,
4,6h[8:1],2,8h[8:1],4,6h[8:1],2,2,
{4}5h[4:1],{8}4,5,5,4h[8:1],5,3h[8:1],
7,1h[8:1],5,3h[8:1],7,1h[8:1],6,6,
{4}4h[4:1],{8}5,5,4,6h[8:1],2,8h[8:1],
3,6h[8:1],{4}3-8[8:1],3/5,{8}5,5h[4:1],
,8,7h[8:1],1,5h[8:1],2,7h[8:1],3,
5h[8:1],2,{4}6-1[8:1],{2}6/4,
{1}8v6[2:13]/2v4[2:13],
,,,,,,{8},3,
4,5,6,6,{4}6h[4:1],
{32}A2f,B2,{16}C,{8},{32}3x/A7f,B7,{16}C,{8},{32}6x/A2f,B2,{16}C,{8},{32}3x/A7f,B7,{16}C,{4},{8}3,
4,5,6,6,{4}6h[4:1],
{32}A2f,B2,{16}C,{8},{32}3x/A7f,B7,{16}C,{8},{32}6x/A2f,B2,{16}C,{8},{32}3x/A7f,B7,{16}C,{4},{8}3,
4,5,6,6,{4}6-8[8:1],
E7f/4-1[8:1],E4f/5-8[8:1],E6f/3-1[8:1],4h[8:3]/E3f,
{8},3,4,5,6,6,{4}6-8[8:1],
E7f/4-1[8:1],E4f/5-8[8:1],E6f/3-1[8:1],E3f/4-8[8:1],
B4f/3-1[8:1],E3f/5-8[8:1],{2}4h[2:1]/E6f,
{64}A7f,B7,C,B3,{16}A3,{8},{4}4-1[8:1],6-8[8:1],3-1[8:1],
5-8[8:1],4-1[8:1],{2}5h[2:1],
{64}A2f,B2,C,B6,{16}A6,{8},{4}5-8[8:1],3-1[8:1],6-8[8:1],
4-1[8:1],5-8[8:1],{2}4h[2:1],
{64}A7f,B7,C,B3,{16}A3,{8},{4}4-1[8:1],6-8[8:1],3-1[8:1],
5-8[8:1],4-1[8:1],{2}5h[1:2],
{64}A2f,B2,C,B6,{16}A6,{4},{8},{64}A7f,B7,C,B3,{16}A3,{4},{8},{64}A2f,
B2,C,B6,{16}A6,{4},{8},{64}A7f,B7,C,B3,{16}A3,{8},{4}5w1[8:1],
{1}5b,
{8},6,5,4,3,3,{4}3h[4:1],
{64}A7f,B7,C,B3,{16}A3,{1},{8}3,
4,5,6,6,{4}6h[4:1],
{64}A2f,B2,C,B6,{16}A6,{1},{8}6,
5,4,3,3,{4}3h[4:1],
{1}A7,
,{2}6h[4:1]/4b-1[8:1],
3h[4:1]/5-8[8:1],
7h[4:1]/4-1[8:1],2h[4:1]/5-8[8:1],
7h[4:1]/1b-4[8:1],2h[4:1]/8-5[8:1],
6h[4:1]/1-4[8:1],3h[4:1]/8-5[8:1],
6h[4:1]/3-6[8:1],2h[4:1]/7-2[8:1],
6h[4:1]/3-6[8:1],2h[4:1]/7-2[8:1],
4h[4:1]/1-4[8:1],8h[4:1]/5-8[8:1],
4h[4:1]/1-4[8:1],8h[4:1]/5-8[8:1],
{1}4bw8[4:11],
