&title=Dream of winds
&artist=XeoN
&first=0.03
&des=NekoMuseigen
&des_5=NekoMuseigen
&wholebpm=150
&lv_1=!
&lv_2=!
&lv_3=!
&lv_4=10+ || 10.9
&lv_5=12
&inote_1=(150)
{1},
{4}1-5[8:2]/8-4[8:2],,,4b/5b,
6h[4:1],5,3h[4:1],4,6h[4:1],5,3h[4:1],4,
7h[4:1],5,2h[4:1],4,8h[4:1],6,1h[4:1],3,
7h[4:1],8,2h[4:1],1,6h[4:1],7,3h[4:1],2,
5h[4:1],6,4h[4:1],3,4-8[4:1]/5-1[4:1],,,1b/8b,
{16}
6,5,7,4,6,5,7<4[8:5],,,,,,4,,,,3,,,,2,,,,1,,6h[16:2]/1h[16:3],,,,6,6,
3,4,2,5,3,4,2>5[8:5],,,,,,5,,,,6,,,,7,,,,8,,,,2h[16:2]/8,,,,
6,5,7,4,6,5,6>3[8:5],,,,,,3,,,,2,,,,1,,,,8,,,,8/7h[16:2],,,,
4,5,3,6,4,5,4>1[8:5],,,,,,5,,,,6,,,,7,,,,8,,,,18,,,,
2,1,3,8,2,1,3>8[8:5],,,,,,8,,,,7,,,,6,,,,5,,2h[16:2]/5h[16:3],,,,2,2,
7,8,6,1,7,8,6<1[8:5],,,,,,1,,,,2,,,,3,,,,4,,,,5h[16:2]/4,,,,
1,8,2,7,1,8,1>4[8:5],,,,,,8,,,,7,,,,6,,,,5,,,,45,,,,
3,4,,2,4,,1,,6,5,,7,5,,8,,
1h[16:2]/8h[16:2],,,1h[16:2]/8h[16:2],,,27,,3,6,4,5,3,6,2,7,
{8}
1bpp6[4:6],,,,,,,,,,,,,,,,7qq3[4:6],,,,,,,,,,,,,,,,
2pp6[4:6],,,,,,,,,,,,,,,,5qq1[8:12],,,,,,,,5<8[8:4],,,,,,,,
2/4-8[8:1],,5,6V84[4:1],,,5b,,
5-1[8:1],,4,3V15[4:1],,6,7,8,
8-4[8:1],,1,2V48[4:1],,,1b,,
1-5[8:1],,8,7V51[4:1],,2,3,4,
{16}
3-7[8:1],,,4,3,,5V73[4:1],,,,,,4b,,,,
{8}2-6[8:1],,8,8V62[4:1],,5,4,3,
{16}
3-7[8:1],,,4,3,,4-8[8:1],,,,5,,6,,7,,
{8}1b/8b,2b/7b,3b/6b,
{16}1,8,2,7,1,8,2,7,3,6,
4b/5b,,45,,2,4h[8:1],,8,6h[8:1],,1,7h[8:1],,2,8h[8:1],,
3,,3h[8:1],,5,4h[8:1],,6,3h[8:1],,7,2h[8:1],,8,3h[8:1],,
1,,6h[8:1],,5,7h[8:1],,4,8h[8:1],,4,1h[8:1],,3,1,,
4,,6h[8:1],,8,7h[8:1],,1,6h[8:1],,2,,3,,54,,
18,,27,,6,3h[8:1],,5,2h[8:1],,4,1h[8:1],,3,1,,
5,,7h[8:1],,1,7h[8:1],,2,8h[8:1],,3,8h[8:1],,4,8,,
5,,2h[8:1],,4,1h[8:1],,5,2h[8:1],,6,3h[8:1],,7,4h[8:1],,
6,,45,,7,8,,5,4,6,3,7,2,8,1,8,
2b/7b,,27,,4,5,,5,7,,7,8,,8,2,,
71,,45,,5,4,,4,2,,2,1,,1,7,,
82,,35,,3,5,,5,7,,7,1,,1,2,,
78,,46,,6,4,,4,2,,2,8,,8,7,,
56,,56,,34,,34,,56,,57,,34,,24,,18,,82,,83,,84,,45,,46,,47,,4b/8b,,
4,8,3,7,2,6,1,5,2,6,3,7,4,8,3,7,2,2,1,3,8,4,7,5,6,6,8,7,1,6,2,5,
{4}3b<6[4:6],,,,,,,7h[4:1],
{4}
2v1[4:1],8,7v8[4:1],1,2v3[4:1],8,7v6[4:1],5,
4v2[4:1],1,8v6[4:1],5,4v1[4:1],8,7v4[4:1],3,
2-6[4:1],5,4-8[8:1],3,1-5[4:1]/2-6[4:1],,,5b/6b,
5<4[4:9]/4>5[4:9],,,,,,,,,,,,,,,,,,,,E
&inote_2=(150)
{1},
{4}1-5[8:2]/8-4[8:2],,,4b/5b,
6h[4:1],5,3h[4:1],4,6h[4:1],5,3h[4:1],4,
7h[4:1],5,2h[4:1],4,8h[4:1],6,1h[4:1],3,
7h[4:1],8,2h[4:1],1,6h[4:1],7,3h[4:1],2,
5h[4:1],6,4h[4:1],3,4-8[4:1]/5-1[4:1],,,1b/8b,
{16}
6,5,7,4,6,5,7<4[8:5],,,,,,4,,,,3,,,,2,,,,1,,6h[16:2]/1h[16:3],,,,6,6,
3,4,2,5,3,4,2>5[8:5],,,,,,5,,,,6,,,,7,,,,8,,,,2h[16:2]/8,,,,
6,5,7,4,6,5,6>3[8:5],,,,,,3,,,,2,,,,1,,,,8,,,,8/7h[16:2],,,,
4,5,3,6,4,5,4>1[8:5],,,,,,5,,,,6,,,,7,,,,8,,,,18,,,,
2,1,3,8,2,1,3>8[8:5],,,,,,8,,,,7,,,,6,,,,5,,2h[16:2]/5h[16:3],,,,2,2,
7,8,6,1,7,8,6<1[8:5],,,,,,1,,,,2,,,,3,,,,4,,,,5h[16:2]/4,,,,
1,8,2,7,1,8,1>4[8:5],,,,,,8,,,,7,,,,6,,,,5,,,,45,,,,
3,4,,2,4,,1,,6,5,,7,5,,8,,
1h[16:2]/8h[16:2],,,1h[16:2]/8h[16:2],,,27,,3,6,4,5,3,6,2,7,
{8}
1bpp6[4:6],,,,,,,,,,,,,,,,7qq3[4:6],,,,,,,,,,,,,,,,
2pp6[4:6],,,,,,,,,,,,,,,,5qq1[8:12],,,,,,,,5<8[8:4],,,,,,,,
2/4-8[8:1],,5,6V84[4:1],,,5b,,
5-1[8:1],,4,3V15[4:1],,6,7,8,
8-4[8:1],,1,2V48[4:1],,,1b,,
1-5[8:1],,8,7V51[4:1],,2,3,4,
{16}
3-7[8:1],,,4,3,,5V73[4:1],,,,,,4b,,,,
{8}2-6[8:1],,8,8V62[4:1],,5,4,3,
{16}
3-7[8:1],,,4,3,,4-8[8:1],,,,5,,6,,7,,
{8}1b/8b,2b/7b,3b/6b,
{16}1,8,2,7,1,8,2,7,3,6,
4b/5b,,45,,2,4h[8:1],,8,6h[8:1],,1,7h[8:1],,2,8h[8:1],,
3,,3h[8:1],,5,4h[8:1],,6,3h[8:1],,7,2h[8:1],,8,3h[8:1],,
1,,6h[8:1],,5,7h[8:1],,4,8h[8:1],,4,1h[8:1],,3,1,,
4,,6h[8:1],,8,7h[8:1],,1,6h[8:1],,2,,3,,54,,
18,,27,,6,3h[8:1],,5,2h[8:1],,4,1h[8:1],,3,1,,
5,,7h[8:1],,1,7h[8:1],,2,8h[8:1],,3,8h[8:1],,4,8,,
5,,2h[8:1],,4,1h[8:1],,5,2h[8:1],,6,3h[8:1],,7,4h[8:1],,
6,,45,,7,8,,5,4,6,3,7,2,8,1,8,
2b/7b,,27,,4,5,,5,7,,7,8,,8,2,,
71,,45,,5,4,,4,2,,2,1,,1,7,,
82,,35,,3,5,,5,7,,7,1,,1,2,,
78,,46,,6,4,,4,2,,2,8,,8,7,,
56,,56,,34,,34,,56,,57,,34,,24,,18,,82,,83,,84,,45,,46,,47,,4b/8b,,
4,8,3,7,2,6,1,5,2,6,3,7,4,8,3,7,2,2,1,3,8,4,7,5,6,6,8,7,1,6,2,5,
{4}3b<6[4:6],,,,,,,7h[4:1],
{4}
2v1[4:1],8,7v8[4:1],1,2v3[4:1],8,7v6[4:1],5,
4v2[4:1],1,8v6[4:1],5,4v1[4:1],8,7v4[4:1],3,
2-6[4:1],5,4-8[8:1],3,1-5[4:1]/2-6[4:1],,,5b/6b,
5<4[4:9]/4>5[4:9],,,,,,,,,,,,,,,,,,,,E
&inote_3=(150)
{1},
{4}1-5[8:2]/8-4[8:2],,,4b/5b,
6h[4:1],5,3h[4:1],4,6h[4:1],5,3h[4:1],4,
7h[4:1],5,2h[4:1],4,8h[4:1],6,1h[4:1],3,
7h[4:1],8,2h[4:1],1,6h[4:1],7,3h[4:1],2,
5h[4:1],6,4h[4:1],3,4-8[4:1]/5-1[4:1],,,1b/8b,
{16}
6,5,7,4,6,5,7<4[8:5],,,,,,4,,,,3,,,,2,,,,1,,6h[16:2]/1h[16:3],,,,6,6,
3,4,2,5,3,4,2>5[8:5],,,,,,5,,,,6,,,,7,,,,8,,,,2h[16:2]/8,,,,
6,5,7,4,6,5,6>3[8:5],,,,,,3,,,,2,,,,1,,,,8,,,,8/7h[16:2],,,,
4,5,3,6,4,5,4>1[8:5],,,,,,5,,,,6,,,,7,,,,8,,,,18,,,,
2,1,3,8,2,1,3>8[8:5],,,,,,8,,,,7,,,,6,,,,5,,2h[16:2]/5h[16:3],,,,2,2,
7,8,6,1,7,8,6<1[8:5],,,,,,1,,,,2,,,,3,,,,4,,,,5h[16:2]/4,,,,
1,8,2,7,1,8,1>4[8:5],,,,,,8,,,,7,,,,6,,,,5,,,,45,,,,
3,4,,2,4,,1,,6,5,,7,5,,8,,
1h[16:2]/8h[16:2],,,1h[16:2]/8h[16:2],,,27,,3,6,4,5,3,6,2,7,
{8}
1bpp6[4:6],,,,,,,,,,,,,,,,7qq3[4:6],,,,,,,,,,,,,,,,
2pp6[4:6],,,,,,,,,,,,,,,,5qq1[8:12],,,,,,,,5<8[8:4],,,,,,,,
2/4-8[8:1],,5,6V84[4:1],,,5b,,
5-1[8:1],,4,3V15[4:1],,6,7,8,
8-4[8:1],,1,2V48[4:1],,,1b,,
1-5[8:1],,8,7V51[4:1],,2,3,4,
{16}
3-7[8:1],,,4,3,,5V73[4:1],,,,,,4b,,,,
{8}2-6[8:1],,8,8V62[4:1],,5,4,3,
{16}
3-7[8:1],,,4,3,,4-8[8:1],,,,5,,6,,7,,
{8}1b/8b,2b/7b,3b/6b,
{16}1,8,2,7,1,8,2,7,3,6,
4b/5b,,45,,2,4h[8:1],,8,6h[8:1],,1,7h[8:1],,2,8h[8:1],,
3,,3h[8:1],,5,4h[8:1],,6,3h[8:1],,7,2h[8:1],,8,3h[8:1],,
1,,6h[8:1],,5,7h[8:1],,4,8h[8:1],,4,1h[8:1],,3,1,,
4,,6h[8:1],,8,7h[8:1],,1,6h[8:1],,2,,3,,54,,
18,,27,,6,3h[8:1],,5,2h[8:1],,4,1h[8:1],,3,1,,
5,,7h[8:1],,1,7h[8:1],,2,8h[8:1],,3,8h[8:1],,4,8,,
5,,2h[8:1],,4,1h[8:1],,5,2h[8:1],,6,3h[8:1],,7,4h[8:1],,
6,,45,,7,8,,5,4,6,3,7,2,8,1,8,
2b/7b,,27,,4,5,,5,7,,7,8,,8,2,,
71,,45,,5,4,,4,2,,2,1,,1,7,,
82,,35,,3,5,,5,7,,7,1,,1,2,,
78,,46,,6,4,,4,2,,2,8,,8,7,,
56,,56,,34,,34,,56,,57,,34,,24,,18,,82,,83,,84,,45,,46,,47,,4b/8b,,
4,8,3,7,2,6,1,5,2,6,3,7,4,8,3,7,2,2,1,3,8,4,7,5,6,6,8,7,1,6,2,5,
{4}3b<6[4:6],,,,,,,7h[4:1],
{4}
2v1[4:1],8,7v8[4:1],1,2v3[4:1],8,7v6[4:1],5,
4v2[4:1],1,8v6[4:1],5,4v1[4:1],8,7v4[4:1],3,
2-6[4:1],5,4-8[8:1],3,1-5[4:1]/2-6[4:1],,,5b/6b,
5<4[4:9]/4>5[4:9],,,,,,,,,,,,,,,,,,,,E
&inote_4=(150)
{1},
{4}4h[8:5]/5h[8:5],,,4b/5b,
6,56,3,34,6,56,3,34,
7,57,2,24,8,68,1,31,
7,78,2,21,6,56,3,34,
5,45,3,34,5-1[4:1],,,2b,
{16}
65,,7,,45,,7<4[8:5],,,,,,4,,,,3,,,,2,,,,1,,6h[16:4],,,,1,,
34,,2,,45,,2>5[8:5],,,,,,5,,,,6,,,,7,,,,8,,,,2h[16:2]/8,,,,
54,,7,,54,,6>3[8:5],,,,,,3,,,,2,,,,1,,,,8,,,,8/6h[16:2],,,,
45,,3,,56,,4>1[8:5],,,,,,5,,,,6,,,,7,,,,8,,,,18,,,,
21,,3,,81,,3>8[8:5],,,,,,8,,,,7,,,,6,,,,5,,2h[16:4],,,,5,,
78,,6,,81,,6<1[8:5],,,,,,1,,,,2,,,,3,,,,4,,,,6h[16:2]/4,,,,
18,,3,,18,,2<7[8:5],,,,,,7,,,,6,,,,5,,,,4,,,,4/3h[16:2],,,,
24,,,45,,,57,,24,,,45,,,57,,
18,,,27,,,36,,4,5,4,5,4,5,4,5,
{8}
4bqq1[4:6],,,,,,,,,,,,,,,,8qq5[4:6],,,,,,,,,,,,,,,,
3qq8[4:6],,,,,,,,,,,,,,,,5qq1[8:12],,,,,,,,,,,,,,,,
2/4-8[8:1],,5,6h[8:3],,,5b,,
5-1[8:1],,4,3h[4:1],,6,7,8,
8-4[8:1],,1,2h[8:3],,,1b,,
1-5[8:1],,8,7h[4:1],,2,3,4,
{16}
3-7[8:1],,,,4,,5h[8:3],,,,,,4b,,,,
{8}2-6[8:1],,8,8h[4:1],,5,4,3,
{16}
3-7[8:1],,,,4,,4-8[8:1],,,,,,1,,1,,
{8}2b/7b,2b/7b,3b/6b,
{16}4,5,4,5,4,5,4,5,4,5,
4h[8:1],,6,,3,4,,6,5,,5,4,,4,3,,
2,,2h[8:1],,4,2,,5,3,,6,4,,7,5,,
8,,8h[8:1],,5,6,,4,5,,3,4,,2,4,,
1,,1h[8:1],,4,3,,5,4,,6,5,,7,5,,
8,,8h[8:1],,2,8,,3,8,,4,8,,3,7,,
2,,2h[8:1],,8,2,,7,2,,6,2,,7,3,,
5,,5h[8:1],,3,5,,2,5,,1,5,,2,6,,
3,,3h[8:1],,5,3,,6,3,,7,3,,6,2,,
7b,,7,,4,5,,5,4,,4,6,,6,3,,
2,,2,,5,4,,4,5,,5,3,,3,6,,
7,,7,,1,8,,8,1,,1,7,,7,2,,
3,,3,,8,1,,1,8,,8,2,,2,7,,
56,,6,,34,,3,,56,,7,,34,,2,,18,,18,,27,,27,,36,,36,,45,,4b/5b,,
2-4[8:1],,2,,7-5[8:1],,7,,2-5[8:1],,2,,7,,7,,
1,5,1,5,2,6,2,6,3,7,3,7,4,8,4,8,
{4}4b-8[4:6],,,,,,,6,
{4}
6h[4:1],5,3h[4:1],4,6h[4:1],5,3h[4:1],4,
7h[4:1],5,2h[4:1],4,8h[4:1],6,1h[4:1],3,
7h[4:1],8,2h[4:1],1,
8-4[8:3]/1-5[8:3],,,,
5b<4[4:9]/4b>5[4:9],,,,,,,,,,,,,,,,,,,,E
&inote_5=(150)
{1},
{4}1-5[8:2]/8-4[8:2],,,4b/5b,
6h[4:1],5,3h[4:1],4,6h[4:1],5,3h[4:1],4,
7h[4:1],5,2h[4:1],4,8h[4:1],6,1h[4:1],3,
7h[4:1],8,2h[4:1],1,6h[4:1],7,3h[4:1],2,
5h[4:1],6,4h[4:1],3,4-8[4:1]/5-1[4:1],,,1b/8b,
{16}
6,5,7,4,6,5,7<4[8:5],,,,,,4,,,,3,,,,2,,,,1,,6h[16:2]/1h[16:3],,,,6,6,
3,4,2,5,3,4,2>5[8:5],,,,,,5,,,,6,,,,7,,,,8,,,,2h[16:2]/8,,,,
6,5,7,4,6,5,6>3[8:5],,,,,,3,,,,2,,,,1,,,,8,,,,8/7h[16:2],,,,
4,5,3,6,4,5,4>1[8:5],,,,,,5,,,,6,,,,7,,,,8,,,,18,,,,
2,1,3,8,2,1,3>8[8:5],,,,,,8,,,,7,,,,6,,,,5,,2h[16:2]/5h[16:3],,,,2,2,
7,8,6,1,7,8,6<1[8:5],,,,,,1,,,,2,,,,3,,,,4,,,,5h[16:2]/4,,,,
1,8,2,7,1,8,1>4[8:5],,,,,,8,,,,7,,,,6,,,,5,,,,45,,,,
3,4,,2,4,,1,,6,5,,7,5,,8,,
1h[16:2]/8h[16:2],,,1h[16:2]/8h[16:2],,,27,,3,6,4,5,3,6,2,7,
{8}
1bpp6[4:6],,,,,,,,,,,,,,,,7qq3[4:6],,,,,,,,,,,,,,,,
2pp6[4:6],,,,,,,,,,,,,,,,5qq1[8:12],,,,,,,,5<8[8:4],,,,,,,,
2/4-8[8:1],,5,6V84[4:1],,,5b,,
5-1[8:1],,4,3V15[4:1],,6,7,8,
8-4[8:1],,1,2V48[4:1],,,1b,,
1-5[8:1],,8,7V51[4:1],,2,3,4,
{16}
3-7[8:1],,,4,3,,5V73[4:1],,,,,,4b,,,,
{8}2-6[8:1],,8,8V62[4:1],,5,4,3,
{16}
3-7[8:1],,,4,3,,4-8[8:1],,,,5,,6,,7,,
{8}1b/8b,2b/7b,3b/6b,
{16}1,8,2,7,1,8,2,7,3,6,
4b/5b,,45,,2,4h[8:1],,8,6h[8:1],,1,7h[8:1],,2,8h[8:1],,
3,,3h[8:1],,5,4h[8:1],,6,3h[8:1],,7,2h[8:1],,8,3h[8:1],,
1,,6h[8:1],,5,7h[8:1],,4,8h[8:1],,4,1h[8:1],,3,1,,
4,,6h[8:1],,8,7h[8:1],,1,6h[8:1],,2,,3,,54,,
18,,27,,6,3h[8:1],,5,2h[8:1],,4,1h[8:1],,3,1,,
5,,7h[8:1],,1,7h[8:1],,2,8h[8:1],,3,8h[8:1],,4,8,,
5,,2h[8:1],,4,1h[8:1],,5,2h[8:1],,6,3h[8:1],,7,4h[8:1],,
6,,45,,7,8,,5,4,6,3,7,2,8,1,8,
2b/7b,,27,,4,5,,5,7,,7,8,,8,2,,
71,,45,,5,4,,4,2,,2,1,,1,7,,
82,,35,,3,5,,5,7,,7,1,,1,2,,
78,,46,,6,4,,4,2,,2,8,,8,7,,
56,,56,,34,,34,,56,,57,,34,,24,,18,,82,,83,,84,,45,,46,,47,,4b/8b,,
4,8,3,7,2,6,1,5,2,6,3,7,4,8,3,7,2,2,1,3,8,4,7,5,6,6,8,7,1,6,2,5,
{4}3b<6[4:6],,,,,,,7h[4:1],
{4}
2v1[4:1],8,7v8[4:1],1,2v3[4:1],8,7v6[4:1],5,
4v2[4:1],1,8v6[4:1],5,4v1[4:1],8,7v4[4:1],3,
2-6[4:1],5,4-8[8:1],3,1-5[4:1]/2-6[4:1],,,5b/6b,
5<4[4:9]/4>5[4:9],,,,,,,,,,,,,,,,,,,,E
