&title=春泥棒
&artist=ヨルシカ
&first=0
&des=MYOU
&clock_count=4
&lv_5=13
&inote_5=(125)
{1},
{8}6h[8:1],,B5,,4h[8:1],,B6,4qq4[4:1],
{8},,,,,7,7,,
{8}3h[8:1]/4,,E6,,5h[8:1]/4,,E3,5pp5[4:1],
{8},,,{32}A3,D4,A4,,{8}6,5,4,3,
{8}4/3,4,B2,,5/6,5,B7,5qq5[4:1],
{8},,,,,7,7,,
{8}5/6,5,E8,,4/3,4,E2,4<2[4:1],
{8},,,,,4,5,6,
{8}8/7,1,B6/E6,,1/2,8,B3/E4,7pp7[4:1],
{8},,,,,3,3,,
{8}1/2,8,A3/E3,,8/7,1,A6/E7,2q3[4:1],
{8},,,{32}A6,D6,A5,,{8}3,4,5,6,
{8}75,,75,,75,,7/5-1[8:1],5x,
{8}7,,7,{32}E7,E6,,,{8}3,3,4h[4:1]/3,,
E{8}2,,42,,42,,4pp6[8:1]/2,,
{8}2>5[8:1],,,8xq4[8:1],,,,,
{8}6h[4:1]/5h[4:1],,,8h[4:1]/7h[4:1],,,8/7<4[8:1],,{8}3h[4:1],,,1p5[8:1]/2,,,3,6xh[8:7]/3xh[8:7],
{8},,,,,,,E5f/B5/B4/E6/E4/A6/A3,
{8},1b/8b,4b/2b,5b/4b,7b-2[8:1]/5b,,,,
{1}Chf[1:1],
{8}8b-4[8:1],7,8b/1b<5[8:1],2,1b/3b,2,{16}1,4,3,6,
{16}5b<8[8:1],,7,,45,,2,2,,6>3[8:1]/4,,7,1,,2b-5-1b[16:3],,
{8},1x-6-2b[16:3],7x,8x,7xh[8:1],,{16}7p3[8:1],1,8,,
{8}7b/4b>1[8:1],2,45,{16}7,7,,35,,2,8>3[8:1],,7,,
{8}6v1[8:1]/8,5,4<7[8:1]/6,3,24,1,{16}2,1,3,,
{8}8b<5[8:1]/5b,7,{16}18,,2,2,,1/7>2[8:1],,6,4,,3bqq8b[16:5],,
{8},4x,5x,6x,1x/7x,1x/7x,2x-5[8:1]/6xv1[8:1],,
{8}2b/6b,,{16}5h[8:1]/8,,6,6,,34,,2,1>4[8:1],,28,,
{8}1/8q5[8:1],7,6>3[8:1]/8,7,46,2,{16}1,4,3,6,
{16}5q1[8:1],,7,,35,,2,2,,4>1[8:1]/3,,6,5,,7b-4-8b[16:3],,
{8},8x-3-7b[16:3],2x,1x,2xh[8:1],,{16}1qq8b[16:3]*pp2b[16:3],8,2,,
{8},,,{48}2xb/8xb,3x,4x-8[48:4],5xh[16:3],,,{8},,,{48}1xb/7xb,6x,5x,4x<3[8:3],,,
{8},3xh[128:1],2xh[128:1],1xh[128:1],8xh[128:1],7xh[128:1],{16}6xh[128:1],4,5xh[128:1],,
{8}1xb/2xhb[4:1],,7,6xhb[4:1]/8xb,,1-5b[8:1],28,1xb,
{8},43,6xbp4b[4:1]/1xb,,,,{16}A3,A2,A1,,
{16}8x/7xh[16:3],,,5,6,,3,,1/2h[16:3],,,4,3,,6,,
{16}57,,8,,24,,1,8>3[8:1],,,,,4,,4,,
{16}5-3[32:3]/6-3[32:3],,,,6,,,2h[16:3],,,1,,18,,5x/7xh[8:5],,
{16},,A5/E6,,A8/B8,,A4/B4,,A1f/E2,,,,A7,A6,A5,,
{16}4xb/3xhb[16:3],,,1,2,,8xb/7xb,,5/6h[16:3],,,8,7,,2xb/1xb,,
{16}34,,1,,56,,8,2<7[8:1],,,,,5,,5,,
{1}4qq6[4:3],
{8},,E7,E8,E1,E2,E3,E4,
{4}6x,6,6,{8}6,5x>3[2:1],
{1},
{4}3x,3,3,{8}3,4xh[2:1],
{8},,,{64}E1,D1,,,,,,,{8},,,,
{8}5h[4:1]/6h[4:1],,,5h[4:1]/6,,4,5,,
{16}34,,,34,,,3/4h[4:1],,,,5,,4,,3xh[8:7]/6xh[8:7],,
{8},,,,,,,E5f/B5/B4/E6/E4/A6/A3,
{8},1b/8b,4b/2b,5b/4b,7bh[2:1]/5b,,,,
{1}4qq4[2:3]*pp4[2:3],
{1},
{16}5h[4:1],,,,,,,4h[16:3]/6h[16:3],,,,,,,7-5s1[16:7]/3h[8:5],,
{8},,,,,,2,,
{4}1>4[2:1]/4,5,6,7,
{4}8<5[2:1]/5,4,3,2,
{8}1/Chf[8:7],,,,,,,B2/A2/A6/B6,
{8},3x/5x,1x/7x,1x/7x,2x/8x,2x/8x,3x/4xw8[8:1],2x/6x,
{16}4b,,,,2/6h[8:1],,5,7,,48,,2,4-8[8:1],,16,,
{8}4/7-3[8:1],5,7/1<5[8:1],2,1/4,3,{16}1,4,3,7,
{16}5q1[8:1],,46,,35,,2,2,,5p1[8:1]/3,,8,4,,7b<4-8b[16:3],,
{8},8x>3-7b[16:3],2x,1x,2xh[8:1],,{16}2q6[8:1],8,1,,
{8}2xb/6xb,8<5b[32:3],7,{48}1xb,2x,3x,4xw8[48:3],,{8},,,{48}7xb/1xb,6x/2x,5x/3x,4xq5[8:2],,,,
{8},6xh[128:1],7xh[128:1],8xh[128:1],1xh[128:1],2xh[128:1],{16}3xh[128:1],5,4xh[128:1],,
{8}8xb/7xhb[4:1],,2,4xhb[4:1]/1xb
,,8q4b[8:1]*>4b[8:1],62,8xb,
{8},56,E1f/E2/E8/B1/B8/B2/B7/E3/E7/C/B3/B6,,{32}4xz8[8:1],5x,6x,7x,8x,1x,2x,3x,,,,,,,,,
{16}1x/7xh[16:3],,,5,6,,45,,8/2h[16:3],,,4,3,,45,,
{16}57,,8,,24,,1v4[8:1],8-5[8:1],,,1x,,,,3,,
{16}6-8[32:3]/2-8[32:3],,,,26,,,3h[16:3],,,1,,18,,5x/7xh[8:5],,
{16},,A5/E6,,A8/B8,,A4/B4,,A1f/E2,,,,A7,A6,A5,,
{16}4x/3xh[16:3],,,1,2,,8/7,,5/6h[16:3],,,8,7,,2/1,,
{16}34,,1,,56,,8,2<7[8:1],,,,,5,,4,,
{8}3qq5[4:1],,7,6h[4:1],,7>6[4:1],1,7x/3x,
{8},2x,3x/1x,3x/1x,4x/8x,4x/8x,5xp1[8:1]/7xp3[8:1],,
{16}5b/7b,,,,8,,6,5,,18,,3,4-1[8:1],,25,,
{16}4/6-3[8:1],,7,,26,,1,1,,35,,8,5<8[8:1],,46,,
{16}2>5[8:1]/5,,1,,24,,7,7,,45,,1<6b[16:1],4,,1xb/2xhb[8:5],,
{16},,A4/E4,,A1/B1,,A5/B5,,A8f/E8,,,,3>8[8:1]*p7[8:1],5,4,,
{16}3b,,,,5,,6,8,,45,,3,1>4[8:1],,28,,
{16}1/7-3[8:1],,6,,87,,2,2,,18,,6,8,,1/5h[4:1],,
{32},,,,2x,3x,4x,5x,6x,7x,8x,1x,2x,3x,5x,6x,7x,8x,1x,2x,3x,5x,6x,7x,8x,1x,2x,3x,{64}5xbp7p1p3b[16:9],D6,A6,D7,A7,D8,A8,D1,
{64}A1,D2,A2,D3,A3,D4,A4,D5,{8},,,,,2,1,
{8}7xb/8xb,1/6-1b[32:3],,{48}2xb,3x,4xw8[48:4],5x,,,{8},,,{48}1xb/7xb,2x/6x,3x/5x,4x<3[8:3],,,
{8},3xh[128:1],2xh[128:1],1xh[128:1],8xh[128:1],7xh[128:1],{16}6xh[128:1],4,5xh[128:1],,
{8}1xb/2xhb[4:1],,7,5xhb[4:1]/8xb,,1-5b[8:1],37,1xb/4xb,
{8},43,7xb<1b[4:1]/8xb,,,,E5f/A4/A5/B4/B5/D5,,
