&title=零號車輛
&artist=seatrus
&first=-0.107
&des=Rainmaker
&lv_5=14
&des_5=Rainmaker
&inote_5=
(240){16},,,7h[1:1],,,,,,,,,,,,,,,,5x,
,7,,4,,6x,,2,,8,,3xpp8[4:3],
,7h[8:5],,,,,,,,,,,,,,,,,,7x,
,1,,6,,3x,,8,,2,,7xqq4[4:3],
,3h[8:9],,,,,,,,,,,,,,,,,,4x,
,3,,5,,4x,,7,,5,,6xqq1[4:3],
,4h[8:5],,,,,,,,,,,,,,,,,,3x,
,1,,4,,8x,,2,,7,,3x,
,6h[8:7],,,,,,,,,,5,,,,4,
,,,3x,,4,,3x,,8x,,1,,7x,,2x>5[4:3],
,2h[8:5],,,,,,,,,,,,,,,,,,6x,
,5,,7x,,1x,,8,,2x,,7x<3[4:3],
,7h[8:5],,,,,,,,,,,,,,,,,,8x,
,1,,7x,,2x,,5,,4x,,6x,
,3xh[8:3],,4x,,,,,,,,5/2,,,,,,,,6/5bqq1[4:5],
,,,,,,,,,,,,,,,8x-6[4:1],
,,,,,,,,,,,,,,,7b/3b,
,7/3,,3/7,,7/3,,,,,,6/5,
,4/7,,,,8/1,,,,1/8,,7,,3,,,4/6,
,,,,2/5,,2/5,,,,3,4,3,,5,
,4/6,,6,,2,,5/3,,4,,6,,5/7,,4,
,6,,6bh[8:3],,5,,5,,5,,3h[8:3],,4,,4,
,4,,7h[8:3],,5,,4,,3,,2h[16:7],,4,,5,
,6,,7b,6,5,4,8,1,2,3,5,6,7,8,2,
3,4,5,8b-4[2:1],,,,,,,,,,,,,,,,8/1-6[8:1],
,,,2x/1x>4[8:1],,,,7-3[8:1],,,,5-2[8:1],
,,,6-1[8:1],,,,3,,,,4-8[8:1],,,,6,
,,,7/5-1[8:1],,,,8<5[8:1],,,,3>8[8:1],,,,7-3[8:1],
,,,1xw5[8:1],,,,,,,,8xw4[8:1],,,,,,,,7bx/1bx,
,,,6h[4:1],,,,5,,6,,3,
,5/4,,,,6,5,6,,5,,7/4,,5,,6p4[2:1],
,5,,6x,,,,3,,,,1,,1,,1,
,,,6,,5,,7,,7,,3,,4,,2,
,,,8b/1-6[8:1],,,,2x/1x>4[8:1],,,,7-3[8:1],,,,5p1[8:1],
,,,8-4[8:1],,,,2,,,,8-6[8:1],,,,1,
,,,7x/1x-5[8:1],,,,8<5[8:1],,,,4-8[8:1],,,,7-3[8:1],
,,,1xw5[8:1],,,,1,,,,8xw4[8:1],,,,8,
,,,2x/6xpp2<4[4:7],{1},{4},,,{16},,,1bh[4:5],
,,,,,,,,,,,,,,,B8,
B1,B2,B3,B4,B5,B6,B7,E1,E2,E3,E4,E5,
E6,E7,E8,1,,2,,7,,7,,2,,3,,8,
,8,,1/7,,2,8,2,,7,,4/6,,5,,2,
,4,,5/1-5[8:1],,1,,7,,7,,8,7,6,5,1,
2,3,4,7-3[8:1],,7,,1,,1,,4,5,6,7,1,
2,3,4,8,,8,,3,,7,,4h[8:1],,6,,6h[8:1],
,5,,4/7,,7,,3-8[4:1],,4,,3,,7,,6,
,1,,2b/7b,,6,,3,,4,,5/2,,2,,8/3,
,7/4,,5,6,7,8,1,2,3,4,8,,8,,7/5,
,5/7,,6b-1[8:1],,6,,2-5[8:1],,2,,8-4[8:1],,8,,4,
,3,2,1/5b,,6,,2,,1,,8/3,,7/4,,3,
,6,5,4/3b,,2,,7,,8,,6/1,,5/2,,3,
,4,3,2,1,8,7,6,5,4,3,2,,8,,7/3,
,7/3,,5/6b-1[8:1],,6,,4-8[8:1],,,,7-4[8:1],,,,1,
,2,,3-8[8:1],,3,,5-1[8:1],,,,2-5[8:1],,,,8,
,7,,6b,,6,,6/5,,6/5,,7/4,,7/4,,8/3,
,8,,3b,4,5,6,2,3,4,5,1,2,3,4,8x-4[8:1],
,,,Cf/8bqq4>5[4:25],{1},,,,,,,{4},{16},,,3h[2:1],
,,,,,,,4<2[1:1],
{1},{4},{16},,,4,
,,,,,,,5/3<1[1:1],
{1},{4},{16},,,5,
,,,,,,,4/6p3[4:3],
,,,,,,,,,,,,,,,E1,
,,,,,,,C,,,,,,,,E5,
,E6,,E7,,E8,,E1,,E2,,E3,
,E4,,5xh[4:3],,,,,,,,4,,,,,,,,4b,
,5,,3,,6,,5,,7,,2,
,6,,5/3,,,,3,,,,4/2,,,,,,,,5,
,4,,6,,3,,4,,2,,7,
,3,,4/6,,,,6,,,,5/7,,,,,,,,1,
,8,,2,,7,,3,,6,,2,
,5,,3,,,,4,,,,5/2,,2,,4,
,3,,5,,4,,6,,3,,3,,8,,2,
,7,,3,,,,6,,,,5/4,,,,,,,,1,
,8,,2,,7,,8,,6,,3,
,7,,8/2,,,,2,,,,1/3,,,,,,,,8,
,1,,7,,2,,8,,3,,6,
,2,,1/7,,,,7,,,,8/6,,,,,,,,3,
,5,,4,,7,,3,,6,,2,
,8,,1h[4:1],,,,8,,,,7/2,,6,,2,
,7,,1b,8,1,8,1,8,1,8,1,8,1,8,1,
8,1,8,1x,8x,1x,8x,1x,,8x,,7b/2b,,,,,,,,7b/3b,
,7/3,,7/3,,7/3,,,,,,2x/1x,
,2/1,,,,4x/7x,,,,8x/1x,,3x/4x,,2x-5[8:1]/6x-1[8:1],,6x/2x,
,,,,,7/3,,7/3,,,,5,4,5,,3,
,4/3,,,,6,,6/4,,4,5,4,,6,5,6,
,3,4,3,,7,,6/2,,5/3,,6,,2,,7/3,
,6/4,,2/1,,3/8,,7/4,,6/5,,7/8,,1,,6/2,
,7/3,,8,7,6,5,8,1,2,3,5,6,7,8,2,
3,4,5,8b-4b[8:1],,,,,,,,,,,,,,,,2,
1,2,1,2,1,2,1,2,1,2,1,2,
1,2,1,2,1,2,1,2,1,2,1,2,1,2,1,2,
1,2,1,2,3,2,3,2,3,2,3,2,3,2,3,2,
3,2,3,2bh[4:3],,,,E4,,,,E5,,,,E6,
,,,7-4[8:1],,7,,1-5[8:1],,1,,6-4[8:1]*-3[8:1],,,,6x,
,,,1/2,,3,4,3,4,2,,7/8,,6,5,6,
5,7,,2-4[8:1],,1-5[8:1],,2,,1,,2-6[8:1],,6,,2,
,7,,8b-3[8:1]*-2[16:3],,,,8b-6[8:1]*-5[8:1],,,,8bw4[8:1],,,,8b,
,,,7/1,,2,4,3,,6,,7/5,,5,,8,
,7/1,,2/4,,1,8,1,,7,,6/5,,8,1,8,
,2,,3/4-7[8:1],,4,,3-8[8:1],,3,,6-1[8:1],,6,,2-5[8:1],
,2,,8x,7,6,,2x,3,4,,8x,5,7,5,7,
,2,,4/3-1[8:1],,3,,8-4[8:1],,8,,3-8[8:1],,3,,7-4[8:1],
,7,,2-4[8:1],,2,,5-1[8:1],,5,,2-5[8:1],,2,,6-1[8:1],
,6,,3,,3,,8/2,,7,,6/5,,3,4,3,
,5,,6/4,,7h[4:1],,8,,1,,6/2,,6/2,,5/3,
,5/3,,4bv1V35[8:3],,6,,6x/4x,,,,,,8-4[8:1],,8,
,,,3b,,,,2x/4xv7V53[8:3],,,,,,1,,1,
,1,,1xw5[8:1],,,,1x,,,,7xw3[8:1],,,,7x,
,,,8/1,,2,4,3,,6,,7/5,,7/5,,8/4,
,8/4,,7h[4:3]/3h,,,,3h,,,,3h,,,,3h,
,,,2b,1,3,1,3/8,,7/4,,7/5,,7,8,7,
,1/6,,2/6>3[8:1],,7,,1,,2,,2>5[8:1],,2,,6,
,7,,8-2>3[8:1]*-3[8:1],,,,8-6>5[8:1]*-5[8:1],,,,8w4[8:1],,,,8,
,,,7/1,,3,2,1,8,7/3,,6/4,,6/4,,5/3,
,3/5,,2-5[8:1]/6-1[8:1],,,,6/2,,,,8-5[8:1]/4-1[8:1],,,,4/8,
,,,6/2,,7,8,7,,1,,8/2,,2/8,,7/3,
,3/7,,6,5,7,,4/8,,7,,1,8,1,7,2,
,6/2,,6b/2-4[8:1],,5,,2,,6,,5/7-1[8:1],,4,,7,
,2,,3b/7-5[8:1],,4,,7,,3,,4/2-8[8:1],,5,,2,
,7,,6b/2-4[8:1],,5,,2,,7,,5b/6-8[8:1],,6,,5-1[8:1],
,5,,7b,,7h[4:1],,2,,3,,8,,8h[4:1],,3,
,4,,5/7-5[8:1],,,,8,,,,2-4[8:1],,2,,1,
,,,6-4[8:1],,,,2,,,,3-5[8:1],,3,,6,
,,,7,6,5,4,8,7,6,5,1,8,7,6,4,
3,2,1,5,,6,,1,7,1,7,2,6,2,6,3,
5,3,5,3,4,5,6,7,8,1,2,3/6,5,4,3,2,
1,8,7,{32}2/6b,3,4,5,6,7,8,1,2,3,4,5,6,7,8,1,2,3,4,5,6,7,8,1,{16}2h[16:35],
,Ch[16:33],{1},,,{4},,{16}1,
8,1,8,1,8,
1,8,1,8,1,8,1,8,1,8,2,7,1,8,2,7,
1,8,2,7,1,8,2,7,1,8,{64}D3,E3,C,E7,{16}D7,
E
