&title=Crush Expert
&artist=shadow_bling
&first=0
&des=TragiC
&lv_5=14
&des_5=TragiC
&inote_5=
(205){4},,,,{1}3/4h[1:1],
2h[1:1],
8h[1:2],
{4},,,{16},,{32}E1,B8,C,B4,
{1}E5f,
,,2h[8:15]/4-7V13v6[4:5],
{8},,,,,,,,8,
5,6,5,7,4,5,4,
{4}6h[4:3],7,8,1,
2/4-7-1-5[4:5],2,2,2,
3,3,3,3,
{8}6,4,5,4,7,5,6,5,
8h[4:3],{32},,,,,,,,,,,,,,,,E7,E6,E5,E4,{4}E3,
{8}7xh[4:1]/5xh[4:1],,,6h[4:1]/4h[4:1],,,{4}5h[4:1]/3h[4:1],
{8},2,2,2,{16}6,5,{8}6,8,1,
2h[4:1]/4h[4:1],,,5/3h[4:1],,5,2,4,
3h[8:3],5,5,{16}5,4,{8}6,6,4,4,
7h[8:1],{16}5,5,{8}6,6,1h[8:1],{16}4,4,{8}2,2,
8h[8:1],{16}5,5,{8}6,6,2h[8:1],4,5/3,5/3,
{16}6,4,6,4,6,4,6,4,7,3,7,3,7,3,7,3,
{2}8h[2:1],{32}D7,E7,C,E3,{8}D3,1x-5[8:1],8x,
{2}1bx/7x,{8}6h[2:1],5,5,5,
4h[2:1],5,5,5,6h[2:1],5,5,5,
2,{16}4,3,{8}4,2,1/7,{16}6,5,{8}6,4h[8:1],
{16}5,3,,5,{8}3-6[8:1],2/6-4-2[4:1],{4}3,{8}1,8,
7h[2:1],5,5,5,3h[2:1],5,5,5,
7h[2:1],5,5,5,3h[2:1],5,5,5,
7,{16}5,6,{8}5,7,8/2,{16}3,4,{8}3pp1[4:3],5,
{1}6xh[2:1],
{4}3b/7b,{16}6,5,{8}7,{16}4,5,{8}3,{16}6,5,{8}7,
{16}3,4,{8}2,{16}5,4,{8}6,7/3,7/3,{16}2V41[4:1],8,1,8,
{8}2,6V85[4:1],,6,{4}2V48[4:1],{8}2,6-8-4[4:1],
,6,1,2,{4}3/5,2/6,
{16}3,4,{8}2,{16}5,4,{8}6,{16}3,4,{8}2,{16}6,5,{8}7,
{16}4,5,{8}3,{16}6,5,{8}7,1/8,8/1,{16}2qq7>2b[4:7],4,3,4,
{1}2,
{4},E7/B6/E6,E3/B3/E4,Ch[8:1],
{8}3bx/7bx,,,4,4h[4:1]/B7/E7,,,5,
4,3,6,4,{2}5h[4:1]/E2/B2,
{8}3,5,4,5,E3/B3,6,5,6,
{4}4-2[8:1],7,{8}6/E2/B2,6,5,5,
3,,,5,5h[4:1]/B2/E3,,,4,
5,6,3,5,{2}4h[4:1]/E8/B7,
{8}6,4,5,4,E7/B6,3,4,3,
{4}5,6/2,{32}1x/B6/E7,2x,3x,4x,5x,6x,7x,8x,{4}1xh[8:1],
4/2-4[8:1],{8}2/4,5-1[8:1],,5/6,{4}7,
8/2,{8}2/8,4/3,,4/3,2/8,{16}8,1,
{4}7-5[8:1],{8}7/5,4-8[8:1],,4/3,2,1,
{4}7h[8:1],{8}5/6,7/1,,1/7,2-5b[8:1]/6-1b[8:1],5/3,
,,,,6/5,5/6,4/7-4[8:1],8/3,
{2}2/7,{8}3/4,4/3,{4}2h[8:1],
{16}5,1,5,1,6,2,6,2,7,3,7,3,8,4,8,4,
{2}Cf/B8/B4,{4}1/8,Ch[8:1]/2-6[8:1],
2b/7b-1[8:1],7/3-5[8:1],3/6-2[8:1],6/2,
{16}3/1,8,7,6,5/4,3,2,1,{4}8/7-5[8:1],{8}1/7-3[8:1],1,
{4}7/2>5[8:1],8/2<7[8:1],7/2,{8}6/5,5/4,
3/4,{16}6,5,{8}7h[8:1],{16}1,8,{8}2-6[8:1]*-5[8:1],3/1,,,{4}7b/3b-8[8:1],
3/6-4[8:1],6/3-7[8:1],3/7,
{16}6/8,1,2,3,4/5,6,7,8,{8}1/2v5[8:1]*-7[8:1],2,,,3xh[8:1],
{16}4,2,{8}8h[8:1],{16}5,7,{8}1h[8:1],{16}4,3,{8}7h[8:1],{16}5,6,
{4}2z6b[2:1],5,6,7w3b[8:1],
{8}7b,,,1x/7x,,7/1,6/5,4,
3h[4:1],5h[8:1],,2/8,,2/8,3/4,5,
{4}6/2>5[8:1],{8}2/6,7>2[8:1],,5/7,{4}4-6[8:1],
3/4-2[8:1],7/4-8[8:1],{8}4/1,1,1,1,
{16}2b,6,2,6,2,6,2,6,3,7,3,7,3,7,3,7,
4b,8,4,8,4,8,4,8,5,1,5,1,5,1,5,1,
{32}4,3,2,1,8,7,6,5,4,3,2,1,8,7,6,5,4,3,2,1,8,7,6,5,4,3,2,1,8,7,6,5,
{4}Cf/4-8[8:1],4<7[8:1]*>1[8:1],,6xh[8:1]/2xh[8:1],
1b/5b,{8}2-4[8:1],4-8-3[4:1],2,5,{4}6h[8:1],
{8}5-2[8:1],6,{4}5/7-5-8[4:1],{8}8-4[8:1],1,{4}2h[4:1],
{16}3,4,5,6,2,3,4,5,1,2,3,4,8,1,2,3,
{8}4/7,{16}6,5,{8}6,4,3/5,5/3,6/2-6[8:1],1/7,
{4}6/2,{8}7-1-5[4:1],7,5-8[8:1],4,{4}3h[8:1],
{8}2-4[8:1],1-6[8:1],2,1,5-8[8:1],5,{4}7h[4:1],
{16}6,5,4,3,7,6,5,4,8,7,6,5,1,8,7,6,
{8}5/3,{16}2,4,{8}2,8h[8:1],{32}3,4,5,6,7,8,1,2,{4}7b/3b,
{16}5b,4,{8}6h[8:1],{16}4,5,{8}2h[8:1],{16}4,3,{8}7h[8:1],{16}5,6,{8}2h[8:1],
{16}4,3,{8}8h[8:1],{16}5,7,{8}1,2/8,2/8,{16}3,6,4,6,
{4}5-1[8:1],7/5,8-4[8:1],{8}1/8,2,
3/5,{16}6,4,{8}6h[8:1],{16}2,4,{8}2h[8:1],{16}8,1,{8}7,7,
{16}4,5,{8}3h[8:1],{16}5,4,{8}7h[8:1],{16}5,6,{8}2h[8:1],{16}4,3,{8}7h[8:1],
{16}5,6,{8}1h[8:1],{16}4,2,{8}8,7/1,7/1,{16}6,3,5,2,
{4}4h[8:1],5h[8:1]/3h[16:1],6h[8:1]/2h[16:1],7h[8:1]/1-5[8:1],
1-7[8:1]*-3[8:1],1w5[8:1],,,5h[4:1],
{16}4,,,6h[16:3],,,{8}5,{4}7/4,
{2}6h[8:3]/5h[16:3],{4}4h[16:3],{16}5,3,5,3,
{4}4h[4:1],{16}3,,,5h[16:3],,,{8}4,{4}2/6,
{2}4h[16:3]/3h[8:3],{4}5h[16:3],{16}4,6,4,6,
{4}5h[4:1],{16}6,,,4h[16:3],,,{8}5,{4}7/3,
{2}5h[16:3]/6h[8:3],{4}4h[16:3],{16}5,3,5,3,
{4}4h[4:1],{16}3,,,5h[16:3],,,{8}4,{4}3/6,
,,{2}3bh[8:1]/6bh[8:1],
{4}7b/2b-5[4:1],{8}2/6,7-3-8[4:1],,4,5,5-2[8:1],
,1,8-3[8:1],7,{4}6-1[8:1],6/4h[4:1],
{16}3,2,1,8,4,3,2,1,5,4,3,2,6,5,4,3,
{4}7-1[8:1]/2-6[8:1],2/7-3-5[4:1],7/5-8[8:1],{8}1,1,
{4}2/7-4[8:1],{8}7/3,2-6-1[4:1],,5,4,4-7[8:1],
,8,1-6[8:1],2,{4}3-8[8:1],3/5h[4:1],
{16}6,7,8,1,5,6,7,8,4,5,6,7,3,4,5,6,
{8}2-8[8:1]/7-3[8:1],3,{4}7/2-5[8:1],2b/6,8b,
E7/E3,{8}A4,E4,A5,B5,A4,E4,
A5,B5,A4,E4,A5,B5,A4,E4,
{4}E3/E7,{8}A5,E6,A4,B4,A5,E6,
A4,B4,A5,E6,{4}E7/2-6[8:1],8w4b[8:1],
8b,{8}1/7,6/2-6[8:1],,2/7-4[8:1],8,7/3-5-2[4:1],
,3,6,7,{4}8/1-5[8:1],1/7-4[8:1],
{8}3/7,2-5[8:1],,5/2,6,7-4[8:1],,7/3,
{16}2,1,8,7,4,3,2,1,6,5,4,3,8,7,6,5,
{2}3/4h[2:1],2,
{1}1/4q8[4:1]*-1[4:1],
{16}5,6,7,8,4,5,6,7,3,4,5,6,2,3,4,5,
1,2,3,4,8,1,2,3,{2}4-2b[8:1]/5-7b[8:1],
E
