&title=Der Richter
&artist=Ωμεγα
&first=-0.03
&lv_5=14+
&des_5=小kai也算开
&inote_5=
(192){4},,,,{8}3<3[16:25],
B5,{4}E6,{8}B4,B5,{4}E6,
{8}E4,B4,B5,E6,,E8,{4}B8,
{8}6>6[16:25],B4,{4}E4,{8}B5,B4,{4}E4,
{8}E6,B5,B4,E4,,E2,{4}B1,
{8}5-8>5[16:25],B4,{4}B3,{8}B4,B3,{4}B2,
{8}B4,B3,B2,E2,,B6,{4}B7,
{8}8-5-8z4[16:25],A1,{4}D2,{8}A1,D2,{4}A2,
{8}A1,D2,A2,D3,A4,D4,A3,D3,
5/1xh[4:1],6,{4}7,{8}5/1xh[4:1],6,{4}7,
{8}5/1xh[4:1],6,7,8,1x,2,{4}3,
{8}4/8xh[4:1],3,{4}2,{8}4/8xh[4:1],3,{4}2,
{8}4/8xh[4:1],3,2,1,8x,7,{4}6,
{8}8/4xh[4:1],7,{4}6,{8}8/4xh[4:1],7,{4}6,
{8}8/4xh[4:1],7,6,5,4x,3,{4}2,
{16}8,1,8,1,8,1,8,1,8,1,8,1,8,1,8,1,
{4}7b/2b,{8}8bx/1bx,{16}8x/6x,8/6,,1x/3x,{8}1/3,{16}4,5,4,5,
{4}3b/6b-1[8:1],{8}6/2,2-5[8:1],,2/6,{4}6-1[8:1],
{8}6/3x-8[8:1],4x,3/6x-1[8:1],5x,{4}6/3x-8[8:1],3/6,
6/3-8[8:1],{8}3/7,7-4[8:1],,7/3,{4}3-8[8:1],
{8}3/6x-1[8:1],5x,6/3x-8[8:1],4x,{4}3/6x-1[8:1],3b/6b,
6/2>5[8:1],{8}2/6,6<1[8:1],,6/2,{4}2>5[8:1],
{8}2/7x<4[8:1],8x,7/2x>5[8:1],1x,{4}2/7x-4[8:1],7/2,
3/7<4[8:1],{8}7/3,3>8[8:1],,3/7,{4}7<4[8:1],
{8}7/2x>5[8:1],1x,2/7x<4[8:1],8x,{4}7/2x-5[8:1],2/7,
{8}6<1[8:1],5,4,3<6[8:1],2,1,8>3[8:1],7,
6,5q1[8:1],4,3,{4}2q6b[8:1],1x/2x,
{8}3>8[8:1],4,5,6>3[8:1],7,8,1<6[8:1],2,
3,4p8[8:1],5,6,{4}7p3b[8:1],8x/7x,
{8}2>5[8:1],1,8,7>2[8:1],6,5,4<7[8:1],3,
2,1>4[8:1],8,7,{4}6<1b[8:1],6x/5x,
{8}4,1/2-4[8:1],,2/5-1[8:1],,5/8-6[8:1],,8/2-4[8:1],
,2/8-5[8:1],,8/2-5[8:1],3,2/8<6-4[8:1],1,{32}8/A3,D3,A2,D2,
{2}1xh[8:3],{16}6b,5,6,5,6,5,6,5,
7b,5,6,5,6,5,6,5,8b,5,6,5,6,5,6,5,
1b,5,6,5,6,5,6,5,6,5,6,5,6,5,6,5,
2b,5,6,5,6,5,6,5,{8}7x/4x,{16}5,6,{8}7x/4x,2x/5x,
{16}3b,4,3,4,3,4,3,4,2b,4,3,4,3,4,3,4,
1b,4,3,4,3,4,3,4,8b,4,3,4,3,4,3,4,
7b,4,3,4,3,4,3,4,{8}2x/5x,6x/3x,7x/4x,6x/3x,
{16}4,5,4,5,4,5,4,5,6x/3x,{8},{16}7x/3x,{8}7x-2[8:1]/3x-6[8:1],2x/6x,
{2}3x/7xpp5[4:5],{8}1,2,3,4,
{16}3,{8},{16}2h[16:3],{4},3,{8}5/4,{16}3,6,
{2}2qq4b[2:3],{8}8,7,6,5,
{16}6,{8},{16}7h[16:3],{4},{8}6,5h[16:1],{4}6,
{8}6h[4:1]/5h[4:1],{4},{8}7/4,{16}2,1,2,1,{8}2,2/1,
3h[4:1]/4h[4:1],{4},{8}2/5,{16}8,7,{8}8,{16}7,8,{8}7,
1,C,2x,C,3x,C,4x,C,
5x,C,6x,C,{16}7bx-4[16:1],{8},{16}1bx-6[16:1],{8},3bx-8[16:1],
{1}A6f,
{4},,,4h[1:2]/5-8[8:15],
{1},,5h[4:7]/4v1[8:13]*v1[8:13],
,8z4[8:5],
{8}1s5[8:5],{2},{8}5,6,7,
{4}8-6>5[8:5],{2},{4}3-8[4:1],
{2}3/4,7-3[8:1],
{4}2>5[8:5],{2},{8}6,6<3[8:5],
{2},5h[2:1],
{4}1-7<6-4[8:5],{2},{8}3,3>2-8[4:1],
{2},7V52[2:1],
{1}2V47[2:1],
1-5[2:1],
{2}5/6h[2:1],B8,
{4}4/3h[2:1],4,{2}B1,
5/6h[2:1],A8/E8/E1,
{4}4/3h[8:1],A1/E1/E2,4/3h[8:1],A1/E1/E2,
2/1<5[8:1],1/3,7/8>4[8:1],8/6,
2/1<5[8:1],1/B5/E6/B6,7/8>4[8:1],8/B4/B3/E4,
{8}3/6,8,6/3,1,3/6,{16}6,3,7,2,8,1,
{2}8-4[16:9],{4}8-4b[16:1],8b,
{8}1/2,{16}2-5[8:1],1,{8}2,1/2,7,{16}7-4[8:1],8,{8}7,7/8,
1,{16}1-5[8:1],8,{8}1,1/8,8-4[8:1],7,8/1,2,
3,{16}3-8[8:1],4,{8}3,3/4,6,{16}6-1[8:1],5,{8}6,6/5,
4,{16}4-8[8:1],5,{8}4,4/5,{16}7<4[8:1],{8},{16}3,{8},2,
{16}1b-5b[8:1],8b,2b,7b,{4}1b,{16}4/8-5[8:1],{8},{16}1,{8},2,
{16}7/3-8[8:1],{8},{16}4,{8},5,6-3[8:1],1,6-1[8:1],2,
6,{16}3,3,,1,{8}1,{16}7,7,,4/5,{8}4-7[8:1]/5-2[8:1],6/3,
{4}4/5,{16}1,8,1,8,{8}2x/7x,8bx/1bx,{16}8bx-4b[8:1],1b,7b,2b,
8bx,Cf,{8},{4}6h[8:1]/3h[8:1],{16}1/2,{8},{16}2,{8}1,1/8,
8h[4:1]/7h[4:1],{4},{16}7,6,5-8[8:1],{8},{16}4,{8}5,3,
{16}1-4[8:1],{8},{16}8,{8}1,7,{4}6-2[8:1]/5-1[8:1],6/5,
{16}8bx,7,3,4,2bx,1,5,6,7b/4bx,{8},{16}8bx/3b,{8},1b/2bx,
{16}1/2>5[8:1],{8},{16}1,{8}2,8,{2}7h[2:1]/Ch[2:1],
{4},6x/1-6[8:1],A1/6x-3[8:1],A6/3x-8[8:1],
{8}8x/A3,7,6,5,4,3,2,1,
1x/8x,{16}1,8,2,7,3,6,4,5,4,5,3,6,2,7,
{8}1/8,{16}2,3,{8}4/5,{16}7,6,{8}5/4,{16}2,3,{8}4/6,{16}7,6,
3x,5,3,5,{8}2x/6x,{16}1/8,2/7,{8}3/6,4x/5x,4/6x,4x/7x,
{16}4x/8bxh,3,2,1,8/4bxh,7,6,5,4/8bxh,3,2,1/5bxh,8,7,6/2bxh,5,
{8}4/8bxh,{16}2,1,2-5[8:1],1,{8}2,2x/1x,{16}7,8,7-4[8:1],8,{8}7,
8bx/7bx,{16}1,2,{8}3h[8:1],{16}7,8,{8}1h[8:1],{16}5,6,{8}7h[8:1],{16}3,4,
5,2,6,1,8,2,5,3,7,1,4,2,5,3,6,4,
6h,7,8/4h,3,2/7h,8,1/5h,4,3/6h,7,8/4h,3,2/7h,8,1/5h,4,
{8}7/3,{16}3,7,4,8,5,1,4,8,3,7,2,6,1,5,
A5/1x-5[16:1],2x/A6,3x/A7,4x/A8,{8}5x/A1,{16}A5/1x-5[16:1],2x/A6,3x/A7,4x/A8,{8}5x/A1,{16}A5/1x-5[16:1],2x/A6,3x/A7,4x/A8,
{8}5x/A1,{16}A5/1x-5[16:1],2x/A6,3x/A7,4x/A8,{8}5x/A1,{16}1,2,3,4,{24}5,8,7,6,5,4,
{8}3b<7b[4:1],{4},{24}A5f/7<3[8:3],8,1,2,3,,,,,,,,A4f/3<7b[8:3],2,1,
8,7,,,,,,,,7/A6f,8,1,2,3,{6},{4}6/2,
{8}5x/1b,6x/2b,7x/3b,8x/4b,5x/1b,6x/2b,7x/3b,8x/4b,
{24}2bh,3,4,8b,7h,6h,1bh,2,3,7b,6h,5h,8bh,1,2,6b,5h,4h,1bh,2,3,7b,6h,5h,
{32}2,3,4,5,6,7,8,1,2,3,4,5,6,7,8,1,2/5,4,3,2,1,8,7,6,5,4,3,2,1,8/4,7/3,2/6q7b[32:19],
{1}5/1q3[16:9]*q3[16:9],
{8}6h[4:7]/E4,B3,{4}B2,{8}E4,B3,{4}B2,
{8}E4,B3,B2,B1,B8,B7,{4}B6,
{8}3h[4:7]/E6,B6,{4}B7,{8}E6,B6,{4}B7,
{8}E6,B6,B7,B8,B1,B2,{4}B3,
{8}4/6h[2:3],3,{4}2,{8}4,3,{4}2,
{8}4,3,2,1,8,7,{4}6h[4:1],
{12}3,4,5,6>5>4-8<7-3>2<1b[12:19],
E
