&title=Brand New Day
&artist=Irucaice feat. Hantsune Miku
&first=0.03
&des=Rhythlame/Jimmit_x
&lv_5=14+
&des_5=Rhythlame/Jimmit_x
&inote_5=
(185){4},,,,{32}B8,
B7,B6,B5,B4,B3,B2,E2,E1,E8,E7,E6,E5,E4,E3,E2,{2}Cfh[4:1],
{4}8b/7b-3[8:1],7/4-8[8:1],4/1<6[8:1],1/3-7[8:1],
3/4-8[8:1],4/1-6[8:1],{8}1,5,4,7/3,
{4}8/2-6[8:1],2/5-1[8:1],5/8>3[8:1],{8}7/8,6V85-1[8:3],
,1,2,3,{4}4q1[8:1]*p7[8:1],4b,
{8}5/2,3,4/7,6,2/5,{16}4,5,{8}3,2/6,
1b/8b,7,6/4,3,2/4,{16}5,4,{8}6,7/3,
{4}8b/1b-5[8:1],1/7-4[8:1],{8}3/7,2-7[8:1]*-5[8:1],,2,
,1,8/7,6/5,{4}3/4w8[8:1],B4f/A4/E5/E4,
{8}3/5h[8:1],2,3/4h[8:1],1,3/5h[8:1],2,3/4h[8:1],1,
3/5h[8:1],3,4/6h[8:1],4,3/5,{16}2,8,1,7,{8}8,
{4}1/6,{8}6V83[4:1],1,{2}3V16[4:1],
{8}3,3,2/5,5,3/4,4/3,5/6,7/8,
{4}2/1>5p8[8:3],7,{8}7,6,5,4/3>6[8:3],
,E4,E5,E6,,,5/3,2,
{16}4,3,4,3,5,4,5,4,6,5,6,5,7,6,7,6,
{8}8v3>1[16:3]*v5<7[16:3],8,{4}8,{8},1b/7b,,,6/4h[8:1],
7,6/5h[8:1],8,6/4h[8:1],7,6/5h[8:1],8,
6/4h[8:1],6,5/3h[8:1],5,6/4,{16}7,1,8,2,{8}1,
{4}8h[8:1]/3-5[8:1],1h[8:1]/3-7[8:1],8h[8:1]/3-5[8:1],3/1h[8:1],
{8}3/8,8,7/4,4,6/5,5/6,4/3,2/1,
{4}7/8<4q1[8:3],2,2,2q6[8:1],
2/8p4[8:1],8/1q5[8:1],1/7p3[8:1],7/4,
{16}4bx,3,2,1,5bx,6,7,8,3,4,3,4,2,5,2,5,
{8}7x/1x,8xp3[8:1]*q5[8:1],{4}7x/1x,{8},1/7,{4}1/7,
7/3h[4:1],{8}6,6-3[8:1],,1,{4}1V35[16:3],
1/5,{8}7,7-3[8:1],,4,{4}4>8[4:1],
8<4[4:1],4>8[4:1],8<4[4:1],4qq8[2:1],
8,{8}7,6,{4}5-1[8:1]*-2[8:1],5,
8/7h[4:1],{8}2,3-6[8:1],,7,{4}8V64[16:3],
8/4,{8}3,2-6[8:1],,4,{4}5<1[4:1],
1>5[4:1],5<1[4:1],1>5[4:1],5qq6[8:3],
{8}1,,,8q5[16:3],,7/8,{4}7b,
{8}6x/4x,6,4/6V82[4:1],6,{4}6/2v7[8:1],B4f,
{8}3x/5x,3,5/3V17[4:1],3,{4}3/7v2[8:1],B5f,
{8}3x/8x,8,4/1<6[8:1],1,{4}1/5>2[8:1],5/8-4-8[4:1],
{8}1-3<5-7b[16:5],1,{4}1,,1b/8b,
{8}2x/7x,6,5/3,4/6,3/7x,6,5/3,4/6,
{16}7,5,7,5,6,4,6,4,5,3,5,3,4,2,4,2,
1x,8,7,6,8x,7,6,5,1x,2,3,4,{24}8x,1,2,3,4,5,
{4}2bh[2:1]/6bh[2:1],,,3/5-1[8:1],
5b/Cf/7<4[8:1],{8}7/3,2,1-5[8:1],5-2[8:1],6,8-3b[8:1],
7,4/8,5-1[8:1],6,7/5,8-4[8:1],4V61[4:1],3/8,
{4}2-6b[8:1],{8}2,8,7/4-7[8:1],3-8[8:1],4,3,
{4}5-1[8:1],{8}5/3,2-6[8:1],,1/2,{4}8w4[8:1],
8b,{8}7,{16}1<6[8:1],5,{8}2,1,4-8b[8:1],3,
{4}4/2-6-3[4:1],{8}1/2,8,,7/5,4/6,3,
2b,1/2,{16}2/1,3,4,5,{8}7b,7/8,{16}7/8,6,5,4,
1x,3,1,3,2x,4,2,4,3x,5,3,5,{32}4x,5,6,7,8,1,2,3,
{4}4b/5bq2[8:1]*p8[8:1],5,{8}7/4,{16}6,5,{8}8-5[8:1],3,
{4}2/8-4[8:1],{8}1/8,3-8[8:1],,3/4V61-5b[8:3],,4h[8:3],
,,,2,4/3,5,6/4,7/5,
{16}1b/8b,,,3b/4b,,7b/5b,,,{4}8b-4[8:1]/1b-5[8:1],8/1,
C/B5/B6/B7/B8,{16}2,4,3,7,5,6,2,8,{4}1-5[8:1]*>4[8:1],
1,{16}7,5,6,2,4,3,6,4,{4}5v8b[8:1]*v2b[8:1],
5>1[4:1],1<5[4:1],5>1[4:1],1,
{8}7x,6x,1x/5x,3/7V53[8:1],,7/8,1-5b[8:1],8,
{64}1b/4,Cf,,,,,,,,,,,,,,,{8}6h[8:1],4,3h[8:1],2h[8:1],1h[8:1],8h[8:1],
{4}7v4[8:1],{8}7,2,3h[8:1],4h[8:1],5h[8:1],6h[8:1],
{4}7v2[8:1],{8}4,4,{16}3x,1,2,8,1x,7,8,6,
{4}7xh[8:1],{16}6,4,5,3,4,2,8,1,7,2,8,1,
{4}6bh[4:1],{16}2,8,1,7,8,6,4,5,3,6,4,5,
{4}2bh[16:3],{16}8,1,6,3,5,4,5,3,4,3,6,5,
{8}8x,8x,{32}1b,2,3,4,7b,6,5,4,{8}1x,1x,{32}2b,3,4,5,8b,7,6,5,
{8}2x-6[8:1],1,2/5-1[8:1],4,{4}5/1z5[8:1]*-6[8:1],A1f/D1/D2,
{8}3x,{16}4,3,7,5,6,3,4,2,7,8,6,1,5,2,
{8}3/4<7[8:1],4,{16}1,2,3,4,8,1,2,3,7,8,1,2,
{8}3/7,{16}4,5,3,4,2,6,5,7,2,1,3,8,4,7,
6/5,4,3,2,1/8,7,6,5,4/1,2,3,4,5/6,7,8,1,
{4}4b/2b,{16}3,5,4,5,3,6,5,6,3,5,4,5,
{4}6/2bh[4:1],{16}8,1,6,3,5,4,5,3,4,3,6,2,
{8}8x,8x,{32}1b,2,3,4,7b,6,5,4,{8}1x,1x,{32}2b,3,4,5,8b,7,6,5,
{8}2b/4b,5b/7b,3b/1b,6b/8bh[4:1],,4w8[8:1],{4}5/3,
,5/2h[8:1],2h[8:1],2h[8:1]/B4,
5h[8:1],5h[8:1]/E3,5h[8:1],5h[8:1]/B4,
3h[8:1],3h[8:1]/B6,3h[8:1],3h[8:1]/B5,
{8}6/4,6/4-1[8:1],,8,,8,7/5,4,
{4}3h[8:1]/5-1[8:1],3h[8:1],4h[8:1]/7-2[8:1],4h[8:1],
5h[8:1]/8-3[8:1],5h[8:1],4h[8:1]/1-6[8:1],4h[8:1],
{16}3,7,3,7,2,6,2,6,1,5,1,5,8,4,8,4,
{1}3xh[8:7]/7xh[8:7],
{64}Cf,B7/E7/B6/B2/E3/B3,,,,,,,,,,,,,,,{8}3,{16}6,5,{8}7,{16}3,4,{8}2,1/7-5[8:1],
8-4[8:1],7-3[8:1],8,7,2-6[8:1],1-5[8:1],2-4[8:1],1,
{4}2,{8}5/6,{16}3,4,{8}2,{16}6,5,{8}8V62[4:1],1,
2V48[4:1],3,4,5,4,3,{4}4/5w1[8:1],
5b,{8}3/7,{16}6,5,{8}8,{16}3,4,{8}1<5[4:1],6,
{4}1/5>1[4:1],{8}8,7-3[8:1],6-4[8:1],7,{4}6<6<6[1:1],
{24}1b/6x,2,3x,4x,,,A1,A2,A3,A4,,,1b,2x,3x,4x,,,A1,A2,A3,A4,,,{8}2,
7/3,8/4,2/6,{16}3bh,4h,5h,4h,6bh,5h,4h,5h,
{8}6bh/3bh,,,4/5,2-5[8:1],1v6[8:1],2,1,
2,3>1-6[4:1],5,3/6<8-3[4:1],,4,5,6,
{4}4-8[8:1]/7-5[8:1],4/7-3[8:1],{8}1/7,1,5/2-6b[12:1],6,
{6}2b/7x-4b[24:1],7b/3x-8b[24:1],3b/5x-1b[24:1],5b/2x,{48},,,,{16}2,3,4,5,
8,6,8,6,7,5,7,5,8b,7,6,5,7b>2[8:1],6,5,4,
{4}7b/3x,{8}5/1,4/8,{16}3bx/7bx,2/6,1/5,8/4,3/7x-3[8:1],6,5,4,
{8}3/7b,{16}2bx,1bx,{4}8bx/5h[8:1],{16}7b/4,8,1,2,3/7b,4/8,5/1,2,
3/1bV37b[4:1],4,{8}7b-5b[8:1],1b,7b,{16},,4h/8h,5h/1h,{8}6v3b[8:1]/2-7b[8:1],4/8,
{48}6bqq7[2:3]/2bqq3[2:3],Cf,
E
