&title=有明/Ariake
&artist=SIINCA
&first=0
&des=Zirconium
&lv_5=14+
&des_5=Zirconium
&inote_5=
(190){4},,,,{1}Cfh[1:8],
B7fh[1:7],
B6fh[1:6],
B5fh[1:5],
B4fh[1:4],
B3fh[1:3],
B2fh[1:2],
,,1h[2:1]/2>1[2:5],
2h[2:1],
3<2[1:3],
3h[2:1],
4h[2:1],
5<4z8>1s5[16:63],
1<5s1<8z4z8b[4:19],
,,,,{8}2h[8:1],
,,3h[8:1],,,{4}4h[8:1],
{8},5h[8:1],,,6,5,{4}4/7,
{8}8,8,,6,{4}6,{8}4,4,
,2,{4}2,{8}4,3,{4}5/2,
1h[8:1],E6/B6,{8}8,E6,,1,
{4}E3,8/C,{8}1,1,{4}E7,
8h[8:1],4/B5,{8}7,B2,,1,
{4}B5,8/B4,{8}3,5,{4}C,
4h[8:1],5/C,{8}1,C,,8,
{4}C,{8}3,C,,6,{4}6/C,
1h[8:1],8/C,{8}4,C,,5,
{4}C,{8}2,C,,7,{4}C/7-1[8:1],
{8},,2,{16}3,4,,,2,1,3-1[8:1],4,{8}3,
,,8,6,{16}3,4,{8}3,{16}6-8[8:1],5,6,4,
,,,,{8}1,{16}3,4,3,5,{8}3,{16}2-4[8:1],1,2,8,
,,,7,{8}7,5,{16}8,1,8,1,6,5,6,5,
{8}7,{16}3,4,{8}2,{16}6,5,{8}7,{16}3,4,{8}1,{16}6,5,
{8}8-4[8:1],8,1-5[8:1],1,2-6[8:1],2,3,4,
{16}3/5,2,1/5,8,5/7,6,5,4,{8}3b/5b-1[8:1],7/1-5[8:1],,,,,{4}4x-8b[16:1],
{16},,,6,{8}6,5/1,
{2}7b/3b-7-3b[4:1],{16}6-1[8:1],6x,,1-4[8:1],{8}1x,{16}4-7[8:1],4x,
,7-2[8:1],{8}7x,2,3,{16}4-1[8:1],4x,,1-6[8:1],{8}1x,{16}6-3[8:1],6x,
,3-8[8:1],{8}3x,8,7,{16}6-2[8:1],6x,,2V47[4:1],{8}2x,{16}4,4x,
,,{8}1,3,{16}8,8,{2}Cfh[2:1],
{32},B7`B6`B2`B3,{16}A7/A6/A2/D3/A3/D7,,,,,,,{8}E8h[4:7],,,E7h[8:11],
,,{4}E2h[1:1],{8},E3h[8:5],,,{2}Ch[4:1],
{8}E5fh[2:3],,,E6h[8:9],
,,{4}E4h[4:3],{8},,,,,,8,
B4,1/7,B6,E4/B4,2,
5b,B7,4/8,B2,1/5,C,{24}2x-7[8:1]/6x-3[8:1],3x/7x,8x/4x,5x/1x,,,,,,,,,{8}1x,
B5,6/4,E8,E2/B2,4,
8b,B6,{32}1,2,3,4,5,6,7,8,{2}1w5[8:1],
{32}8x/2x,7x/3x,6x/4x,5xh[32:5],,,,,{8}1,B8,3/5,E7,E5/B5,8,
3b,B5/E6,1/7,B3,4/8,C,{24}3x-7[8:1]/7x-3[8:1],6x/2x,5x/1x,4x/8x,,,{4}Cf,
{8}1x-5[24:35],B7,4,E4,E7/A6,3,
{2}8h[4:1],1x-5b[8:1],
3>5[4:1],{4}4<2[4:1],2V86[4:1],
{8},5,4,3,{4}2-6[8:1],{8}6,7,
{32}8x,1x,2x,3x,4x,5x,6x,7x,{4}8x-3[8:1]/4-7[8:1],,4/8V27[4:1],
7-3[4:1],3V58[8:3],{2}5-2b[8:1],
{48}A7h[2:1]/A3h[2:1]`D7h[2:1]`D3h[2:1],{4},,{48}B7/B3,{24}Cf,,,,,{4}1x>7[4:1],
,1<3[4:1],3V57[4:1],{8}E1,B2,
{1}Ch[4:3],
{8},8/1,3/4,{16}6,5,7,5,{8}8,1/8,2/4,
{16}5,4,6,3/7,,1/8,,3/4,{8}2,{16}6,5,6,4,7,3,
4,2,4,2,5,3,6,4,{8}8,8/1,{16}3,4,6,5,
2,4,2,1/5,,7/8,,6/5,{8}4,{16}2,1,2,8,3,7,
8,6,8,6,1,7,2,8,4,5,7,6,3,4,8,7,
{8}2,{16}3/4,5,,6,5,6,{8}7/4,{16}1,8,2,4,3,5,
2,1,5,6,2,8,5,6,{8}7/4,5/3,{16}2/4,1,5,6,
2,8,3,4/7,,6/5,,4/3,{8}2,{16}1,8,3,4,6,5,
3,7,1,5,4,8,2,6,1,5,3,8,1,6,4,5,
{1}1b>1>1>4[2:7],
E3h[2:1],
E5h[2:1],
E7h[2:1],
{8}3b/4b,{16}5,4,6,5,{8}7,8b/7b,{16}5,7,4,6,{8}3,
2b/1b,{16}4,3,5,4,6,5,{8}7b/4b,6b/8b,1b/2b,4/3,
{16}7b,5,6,4,5,3,{8}4,1b/2b,8/1,7/8,6/5,
4b/3b,{16}2,5,1,6,8,7,{4}8b-4[8:1],8b,
{1}E1fh[1:2]/E2h[1:2]/E3h[1:2]/E8h[1:2]/E7h[1:2]/E5h[1:2]/E4h[1:2]/B5h[1:2]/B6h[1:2]/B7h[1:2]/B8h[1:2]/B1h[1:2]/B2h[1:2]/B4h[1:2]/E6h[1:2]/B3h[1:2],
,Cfh[1:8],
1xV38s4[4:9],
,,2>8[2:3],
,8<2[2:3],
{2},,1xs5[1:1],
B6/E7,
5V31[1:1],B1/B8,
1>5[1:1],B4/B5,
{8}7,E1/B8,,4,{4}E3/B2,7/B4/B5,
{2}8>6[1:1],E4/B4,
6V84[1:1],E5/B5,
4V61[8:13],E2/B2,
{1}2-5[8:5],
4bp5b[4:13]`8b<1[4:13],
,,,1q8[4:9]/5<4[4:9],
,,8h[1:1]/4h[2:1],
{8}1,1,1/B5,7,7/E3,7,3/B6,3,
3/B7,8,8/B4,8,1/B7,1,6/E4,6,
3/E5,3,3/E7,8,8/B2,8,1/B7,1,
1/B5,4,4/E3,4,3/B5,3,6/B1,6,
{16}B8,4,5,2,B6,3,7,7,B2,8,1,6,B4,7,3,3,
{8}E6,2/E7,3/E8,4/E1,{16}5x,1x,4x,8x,3,7,2,6,
{24}5x/1bh,8,7,6x,5,4,3x/7b,2,1,8x,7,6,{32}5x/1b,2,3,4,5b,6,7,8,1/3bh,2,3,4,5/1bh,6/2,7/3,8/4,
{1}1bh[4:3]/5bh[4:3],
{64}8bq2[4:13]/4bq6[4:13],E8/E4,7b/3b,E7/E3,6b/2b,E6/E2,5b/1b,E5/E1f,{1},,,{4},,,{16},,{1}4-1[4:13]/8-5[4:13],
{4},,,,,,,,,,,8xw4[8:1],
{32}E8h[32:1]/E1h[32:1]/E2h[32:1]/E3h[32:1]/E7h[32:1]/E6h[32:1]/E5h[32:1]/E4h[32:1],B1/B8/B7/B6/B5/B4/B3/B2,{16}C,
E
