&title=キスキツネ
&artist=HIMEHINA
&first=0.1
&des=Samuii
&lv_5=13+
&inote_5=(146)
{8},,,,,,,,,,,,,,,,,,,
{32},
{8}C,,8,2,6,3,5pp5qq5[8:4]/3h[8:1],,3h[8:1],,1pp1[8:2],,1qq1[8:2],,6h[8:1],,6h[8:1],
{32},,,
{8}Ch[8:4]/5h[8:1],,5h[8:1],,8,8,
{16}27,,27,
{24},1,8,1,8,1,
{32}8,7,6,5,1,2,3,4,,Chf[2:1],,,,,,,,,
{8},,
{32},
{16},1,1,,6,,6,,4,5,3,6h[16:1],,,
{32},
{16}6,5,7,3,4,2,6,6x,1-5[8:1],7,2,8,1b/Cf,,,,
(150)
{16}6hb[8:1],,B6,,3h[8:1],,B3,,4-1[8:1],5,4,5,4b,
(150)
{48},
{16}
,,,8h[8:1],,6h[8:1],,4h[8:1],,2h[8:1],,8h[8:1],,Ch[8:1],,B8/B1/E1f,,,,
{32}
(146)
{16}8,,8,,3,,3,,5,4,6,3,7h[16:1],,,,1,1,7,7,3,3,8,8,Ch[16:2],,,
{48},
{16}B8/B1/E1,,E5/B5/B4,,
(150)
{32},
{16}6h[8:1],,B6,,3hb[8:1],,B3,,1x-5[8:1]*-5[8:1],8,1,8,1b,
{16},,,1h[8:1],,3h[8:1],,5h[8:1],,7h[8:1],,1h[8:1],,8h[8:1],,,1x,2x,3x,
(146)
{8}4hx[8:1],,
{32},
{8}7h[4:1],,4,4,
{16}2,2,,6<2v4[8:3],,1,1,
{32},
{8},4hx[8:1],,,
(150)
{8}35,8,46,1,35,1,74,,1-5b[8:1],5w1[8:1],1>4-1[8:3]*<6-1[8:3],A5,,,,,3h[8:1]/4h[8:1],,5h[8:1]/6h[8:1],,3h[8:1]/4h[8:1],,28,64,
{16}1-3-8[8:2],C,
{8},
{32},
{16}5,,5-8b[8:1],,
{32},
{8},,,
{16},,
{8}1-5[12:1]/7,2,1/7v4[12:1],6,1-5[12:1]/7,2,17,,45,45,
{32},36,,,,,,28,,,,,,17,,,,,,28,,,,,,
{16}1h[12:1]/8h[12:1],,,
{32},,
{16}47,,
(150)
{8},1V35[8:2]*>5[8:2]/5-1b[8:1],,5<1[8:2]*<1[8:2],,,,6>4[8:1],4>2[8:1],2>8b[8:4],,,,B2f,,,,
(147)1h[8:1]/4h[8:1],,5h[8:1]/8h[8:1],,35,,3qq8[8:5],,,,7-4b[8:1],,,,
5xqq5pp5b[8:4],,,,1xpp1qq1[8:4],,,,5xqq5pp5b[8:4],,,,1-3-8[8:2],,,,5pp5[2:1]*qq5b[2:1],
{16},
{32},
{8},,,,,,1,7,2,6,3,5,4,5h[8:1],
(85)Ch[1:1],
(147)
{32},,,
(150)
{8},,,,,E7/B7/B6,,,,B2/B3/E3,,
{32},,,
(149)
{8}B8/B1/E1f,,3>8[8:1],,4,5,6<1[8:1]
,,5,4,3,,2,7,1v4[8:1],8-5b[8:1],1,8,E7/B7/B6/C/B2/B3/E3,,1v4[8:1]/8,2,1/8-5b[8:1],7,1v4[8:1]*v4[8:1]/8,2,18,,3h[8:1]/5x-2-6-1[16:6],,,,,,,
{16}2,1,2,,6,5,6,4,7,3,,8h[8:1],,4,7h[8:1],,3,3,6h[16:3],,2h[16:1],,
{32}3x/7x,4x/8x,1x/5x,,,,,,,
{8}Ch[8:2]/B2/B3/E3,B7/B6/E7,,,1pp4[8:7]/5pp8[8:7],37,15,,,,,,,,3-8[8:1]/7-4[8:1],26,3b/7b,,
(146)
{16}1,,1,,6,,6,,4,5,3,6,2h[16:1],,,,6,5,7,3,4,2,6,6x,1-5[16:1],7,2,8,1b/Cf,,,,
(150)
{16}6hb[8:1],,B6,,3h[8:1],,B3,,4-1[8:1],5,4,5,4b/B3/B2,
(150)
{16},,,8h[8:1],,6h[8:1],,4h[8:1],,2h[8:1],,8h[8:1],,Ch[8:1],,B8/B1/E1f,,,,
(146)
{16}8,,8,,3,,3,,5,4,6,3,7h[16:1],,,1,5,3x,8,4,6x,2,5,3x,3hx[8:1],,,Ch[16:2],,B8/B1/E1,,,
(150)
{16}3h[8:1],,B3,,6hb[8:1],,B6,,5x-8[16:1]*-8[16:1],4,5,4,5b/B6/B7,
{16},,,B2,,E7,,B1,B7,,C,,B8,B7,E7,B4,B3,E3,,
(146)
{16}7h[8:1],,,,7h[8:1]/B2,B3,,,7h[8:1],,,,7h[8:1]/B2,B3,,,7h[8:1],,,,7h[8:1]/B2,B3,,,
7b/8b,,,,1b/2b,,,,
(150)
{16}3h[8:1],,,,3h[8:1]/B7,B6,,,3h[8:1],,,,3h[8:1]/B7,B6,,,3h[8:1],,,,3h[8:1]/B7,B6,,,
8b,,,
,8b,,2h[8:1],,
(146)
{16}4,3,8,5,6,1,4,3,8b,,,,8b,,3,5,1,,6,,2h[8:1]/4h[8:1],,,,
(155)
{16}4bqq2[8:1]/6b<1[8:1],,,,,,,,
{32},
(150)
{16}53,,4,,5,4,,3h/6h,,,5,,3,4,,2h/5h,,,1,,2,,1,2,,
{32}1x,8x,7x,6x,2x,3x,4x,5x/Chf[32:3],,,,,,,,
(149)
{32}2hx[4:3],,,,,,,,B7,B6,,,,,,,,,,,,,,,B7,B6,,,,,,,3h[4:3],,,,,,,,B7,B6,,,,,,,,,,,,,,,B7,B6,,,,,,,1h[4:3],,,,,,,,B7,B6,,,,,,,,,,,,,,,B7,B6,,,
{8}1,,2,3,4,C,,C,
{16},,5h[49:38],,,
{48},
{16}2,,,,,,,2,,2,,,,6h[4:3],,,3,,,,,,,3,,3,,,,7h[8:7]/4,,,,4,,,,4,,,4,,,4,
{32},,
{12}A2,E2,B1,B8,E8,A7,A6,E6,B5,B4,E4,A3,Cf,
{32},,,,,
(146)
{8}4q1>4[8:3]/6h[8:1],,7h[8:1],,6h[8:1],,5pp5qq5[8:5]/1h[8:1],,2h[8:1],,3h[8:1],,1b,,,,
4p1[8:3]/8h[8:1],,7h[8:1],,6h[8:1],,5-8[8:4]/4-1b[8:4],,,,,,,
{32},,,
{8}1>4[4:1],,,,5<8b[4:1],,,,1>4[4:1],,,,5V71b[32:6],,,,3qq8[8:4]*pp6[8:4],,,,,,,
{32},,,
{8}1,8,2,7,3,6,4,5,3qq3pp3b[2:2],,,,,,,,,,,,,,,
{32},,,
(150)
{32}1/Cf,2,3,4,5,6,7,8,1,2,3,4,5,6,7,8,1,2,3,4,5,6,7,8,1,2,3,4,5,6,7,8,1,2,3,4,5,6,7,8,1,2,3,4,5,6,7,8,1,2,3,4,5,6,7,8,1b,,,,,,,,
(150)
{16}6hb[8:1],,B6,,3h[8:1],,B3,,
{48},
{16}5-8[8:1],4,6,3,5b,,,,1h[8:1],,3h[8:1],,5h[8:1],,7h[8:1],,1h[8:1],,Ch[8:1],,B8/B1/E1f,,,,
(146)
{16}2,,2,,6,,6,,1,8,2,7,1h[16:1],,,,1,3,2,8,6,7,2,4,3h[8:1],,,
{32}C,,B5/B4/E5,,,B8/B1/E1,,
(146)
{32},,
{16}3h[8:1],,B3,,6hb[8:1],,B6,,5x-8b[8:1],4,5,4,5b,
{16},,,3,,34,,5,54,,6,,4,7,1,8,3,6,,1h[8:6]/5h[8:6],,,,,,,,,,,,
{32},
{24}2x-7[8:1]/6x-3[8:1],3X/7X,4x/8x,5x/1x,
{8},,,,,,,,,
E,
