&title=神のまにまに
&artist=れるりりfeat.ミク&リン&GUMI
&first=0
&lv_5=11+
&base_5=11.7
&des=えども~ん
&inote_5=
(135){1},
{8}4,,3,,5,5,6,,4,4,3,{16}5,4,5,4,
{8},46,,3,3,7,{16}1,8,1,8,1,8,1,8,
{8},2b/7b,,5,,6,,7,,
{8}1-5[8:1],,12,,4^7[8:1],3,24,,8-4[8:1],,78,,5^2[8:1],6,75,,
{8}8-4[8:1],,18,,34,2,56,7,81,{24}1,2,3,{8}4,6,3-8[8:1]/7-4[8:1],,,,
{8}5^2[8:1],,56,,7-4[8:1],8,71,,4^7[8:1],,34,,2-5[8:1],1,28,,
{8}6-1[8:1],,65,,3,2,43,2,2<5[2:1]/7>4[2:1],,,,,,,,
{16}45,,3,,8,1,8,,3b/6b,,,,,,,,
{4}5/6h[4:3],7,{8}5,5,{4}3,3h[4:3]/4,2,{8}4,4,{4}6,8/7h[4:1],6,2h[4:1]/1,3,
{8}2,1,8,73,,4,5,6,
{8}7h[2:1],,8,,1,2,38,,6h[2:1],,5,,4,3,25,,
{4}3pp5[8:1]/1<5[8:1],,6qq4[8:1]/8>4[8:1],,
{8}4,5,6,73,,4,3,2,
{4}1h[4:1],8h[4:1],6h[4:1],5,
{4}4p7[4:1]/3p7[4:1],,
{8},8,8>4[8:1]*q4[8:1],,,,8>4[8:1]*<4[8:1],,,,7z3[2:1],,2h[2:1],,,,
{8},1,1,8,71,,
{16}6h[4:1],,,5,5,,4,,25,,,,28,,,,3h[4:1],,,4,4,,5,,4-8[4:1]/6-2[4:1],,,,
{8},,,6,{16}6<2[16:3],,,2v4[16:3],,,4b,,{8},,3h[8:4],,,8,8,,
{4}2-6[5:1],6^3[4:1],7,8,7-3[5:1],3^6[4:1],2,1,
{4}8b^3[4:1]*^5[4:1],,{8},4,4,{4}1bpp5[8:3]*qq5[8:3],,,
{8}4,4,5,2v8[8:1],,7,,56,47,38,,6v4[8:1],,3,,12,38,4>5[2:1]/7,,
{4},,,7p2[4:1],{8},,,1-4[8:1]*-6[8:1],,,,37,
{8},46,46,,{16}8,1,8,1,8,1,
{8},2b/7b,,3,,2,,1,,
{8}2-4[8:1]/6,,2^7[8:1]/5,,6-1[8:1],6,,,
{8}7-5[8:1]/3,,7^2[8:1]/4,,3-8[8:1],3,,,
{8}1-5[8:1],,18,,56,7,43,2,81,
{24}8,7,6,{8}5,3,6-1[8:1]/2-5[8:1],,,,
{8}6-4[12:1]/2,,6^1[8:1]/3,,2^7[8:1],2,,,
{8}3-5[12:1]/7,,3^8[8:1]/6,,7^2[8:1],7,,,
{8}5-1[8:1],,54,,12,3,78,6,{4}3>6[4:1]/6<3[4:1],,
{8},4,4,5,
{8}3bv8[8:1]/6bv1[8:1],,36,,2-5[8:1]/7-4[8:1],27,,,6^8[8:1]/5q1[8:1],,65,,4^7[8:1]/2v7[8:1],42,,,
{8}8-4[8:1],,18,,35,1,46,8,81,{24}1,2,3,{8}4,6,3-8[8:1]/7-4[8:1],,,,
{8}2-5[8:1]/6-4[8:1],,26,,7-4[8:1]/3-5[8:1],73,,,7^4[8:1],,8v3[8:1],,7^4[8:1],7,8,,
{4}1>5[4:1],5q1[4:1],1q5[4:1],5<1[3:1],8>4[3:1],,
{8},8,8,7,
{8}2-5[8:1]/6-4[8:1],,2^7[8:1]/6,,6<2[8:1],6,,,
{8}7-4[8:1]/3-5[8:1],,7^2[8:1]/3,,3>7[8:1],3,,,
{8}8-4[8:1],,18,,35,1,46,8,81,{16}7,5,{8}6,43,2<6[8:1]/3p6[8:1],,,,
{8}7-4[8:1]/3-5[8:1],,7^2[8:1]/3,,3>7[8:1],3,,,
{8}2-5[8:1]/6-4[8:1],,2^7[8:1]/6,,6<2[8:1],6,,,
{8}5-1[8:1],,54,,28,4,17,5,{4}6q3[4:1]/2^7[4:1],,
{8},1,1,2,
{8}3-5[12:1]/7,,3^8[8:1]/6,,7q3[8:1],7,,,
{8}6-4[12:1]/2,,6^1[8:1]/3,,2p6[8:1],2,,,
{8}1-5[8:1],,81,,64,1,53,8,18,{16}2,4,{8}3,56,7>3[8:1]/6q3[8:1],,,,
{8}7-1[12:1]/3,,7^4[8:1]/2,,3^6[8:1],3,,,
{8}2-8[12:1]/6,,2^5[8:1]/7,,6^3[8:1],6,,,
{8}1-5[8:1],,18,,64,8,53,1,
{16}5,4,5,4,6,3,6,3,7,2,7,2,8,1,8,{1}2b/7b,,
&inote_6=
