&title=蛍火の雪
&artist=Endorfin.
&first=0.006
&des=藍雪の月
&clock_count=4
&lv_5=13+
&lv_7=13+
&inote_5=(159)
{1},,
{8}8x,8xh[2:3],,A1,,E8,,E2,,
{8}E7,,E3,,C,,E5/E6,,E7/E3,,E2/B5,,B8/B3,,
(159){8}C,,E5,,46,2,1-5[8:1]/8,7,
5<4[8:4]/Cf,,,,,5,6,7,85,,6/2,,35,6,8/7-3[8:1],1,
3>4[2:1]/Cf,,,,,1,2,3,4/7^5[8:1],,5,,4q8[8:1],,3,1b,
,6x/5,7,,3x/4,2,,1x/8,2x/7h[8:6],,5x,,1x,,3xv8[8:1],,
6bx,,5hx[8:1],2,,2,,2,
,2/E8,,2,,2/E7,,2,
,3/E6,,3,,3/E7,,3,
,3/E8,,3,,35,,64,
,7/5>1[8:3],,7h[8:1],,7,,7,
{16}E2,E3,{8}7/E4,,7,,7/5h[8:2],,7,
,6/4-8[8:2],,6h[8:1],,6,,{16}1x,2x,
3x-5[8:1]/6x,,,,7x-3[8:1],,,,1x-5[8:1],,,,5xw1[8:1],,,,
Cf,,,,73,,6,5,6,,71,,3qq4[32:11],5,4,,
6x,,,,7,,6,5,6,,28,,7^2[8:1],5,6,,
4x,,,,17,,6,4,5,,28,,3qq1[16:2],4,2,,
6x,,,,28,,3,5,4,,17,,7v4[8:1],5,6,,4,,3,,2,,18,,7,,6-2[8:1],4,5,,2x,,
3x,,4,,5,,68,,17,,2-6[8:1],8,1,,7x,,
8,,17,,2,,83,,7,,26,,3,,64,,5,,
53,,4,,64,,5,,34,,2,1,2,,
8b/3b,,,,7/5,,7,,5,,6h[8:2],,,,3,,
2-4[8:1],,,,6-8[8:1],,,,3-5[8:1],,,,8-4-6[8:2],,,,
4,,,,E2,,E3,,E4,,8,,8^6[8:1],,,,
4^2[8:1],,,,7^5[8:1],,,,3^1[8:1],,,,6-4v7[8:2],,,,
2,,,,3x,,3xh[8:2],,,,1,,8>4[8:2],,,,
2h[8:2],,,,,,2<4b[16:5],,,,5,,,,7,,
,,8bx-4[8:1],,,,1,,2-6[8:1],,,,3,,4-1[8:1],,
,,8x,,7x,,6x-4[8:1],,4x-2[8:1]*-8[8:1],,,,,,,,
7b/1b,,,,3,,3,,4,,2-4[8:1]/5h[8:1],,,,5h[8:1],,
,,1-5[8:1]/6h[8:1],,,,6h[8:1],,,,2h[8:1]/4h[8:1],,,,4h[8:1]/6h[8:1],,
,,7h[8:1]/5-1[8:1],,,,7h[8:1],,,,7h[8:1]/4-2[8:1],,,,7h[8:1],,,,
1-5[8:1]/6h[8:1],,,,6h[8:1],,,,{12}2x,4x,3x,6x,5x,7x,
{32}2bx<3[8:11],,{16},,,,,,,,,,,,,,,C,,,,,,,,,,,,,,
,,28,,17,,5,6,4,5,3,,1,8,1,,2b/7b,,,,,,8b/4bw8b[16:4],,,,,,,,,,
,,26,,6<4[16:4],5,7,,1b,,,,,,2h[8:1],,
4,3,52,,7qq5[8:1],3,5<1[8:2],,4,,3,,2x,,,,
6,,74,,1>6[16:4],8,2,,7b,,,,,,8h[8:1],,
5,6,47,,2pp4[8:1],6,4>8[8:2],,5,,6,,7x,,7x,,
8,,82,,6,4,5,,8<4[16:3]/2b,,,,2,,1,,
8>4[16:3],,,,6,,7,,8bp4[16:3],,,,1,,1>6[8:2],,,,
6x>1[8:2],,,,8x,,,,7bx,,3,5,1,,
6bx/4bx,,7,5,1,,2/8,,1-5[8:1]/7-4[8:1],,,,1b/7b,,,,
63,,28,,2<4[8:2]/8,,1,,7b,,,,,,6-1[8:1],,
2-5[8:1],,6,,2,,7h[8:1],,4V61[16:4],,3,,2x,,,,
4,,5,,7qq4[8:3]/2,,,,1b,,,,2,,3p8[8:3],,
,,7,,,,6,,5h[8:2],,,,1,,3,,
75,,8,,1-5[8:1]/2-5[8:1],,38,,2b/1b,,,,8-5[8:1]/7-4[8:1],,61,,
8b/7b,,,,1v6[8:1],,28,,3,,4x^7[8:1],,,,1x^4[8:1],,
,,6x^1[8:1],,,,4xq5<4[8:13],,,,,,,,,,,,,,,,,,,,,,,,,,
,,,,,,,,
{96}B6,,,,,,,,,,,,,,,,,,,,,,,,E7/B5,,,,,,,,,,,,,,,,,,,,,,,,E2/E4,,,,,,,,,,,,,,,,,,,,,,,,E3,,,,,,,,,,,,,,,,,,,,,,,,B5/E8,,,,,,,,,,,,,,,,,,,,,,,,
{16}E7,,,,E5,,3x,,2x/8-4[8:1],,1x,,
6b/8bx,,,,3/5,,3,,4,,3h[8:2],,,,6,,
7qq5[16:3],,,,3qq1[16:3],,,,7h[8:2],,,,2^5p8[8:3],,,,
6bh[8:2],,,,,,,,7,,8,,1-4[8:1],,,,
6-1[8:1],,,,2-5[8:1],,,,6q3[16:3],,,,1q5^2[8:3],,,,
6bh[8:2],,,,,,,,8,,1,,2^4^6[8:2],,,,
6p1[16:4],,,,8,,,,7,,,,5h[8:2],,,,2,,3bx^6b[32:5],,,,1,,
8,,7x<3b[16:3],,,,8,,1,,2bx,,3,,45,,6,,
6,,7/1-5[8:1],,8,,
3b/1b,,,,6/4,,6h[16:3],,,5,7,,4,,8,,1v6[16:2]/3,,,,5^2[8:1],,,,
8-4[8:1],,,,2<4[8:3],,,,7bh[8:2],,,,,,8,,
1,,2h[8:2],,,,4,,53,,6,,7,,81,,
7^1v4[16:4],,,,3,,2,,2,,
{12}1b/E5/D5f/B5,,8,,7,,6b/E2/D2f/B2,,5,,4,,2b/E6/D6f/B6,,3,,4,,5b/E1/D1f/B1,,6,,7,,
{16}8b/2b,,3,,74,,6,,53,,4,,65,,7h[8:2]/8,,,,,,28,,
3,5,4,,6h[8:1],,8,,1/7v4[8:1],,,,4x,,2xV47b[8:2]*V41[8:2],,,,,,,,,,
{64}E1,B8,C,B4,E5,,,,
{16},,,,,,,,,,,,,,,,,,,,,,,,
{64}5x,,4x,,3x,,2x,,
1xw5[8:1]*w5[8:1],,8x,,7x,,6x,,5x,,,,,,,,
{96}1bx,Cf,,,,,{16},,,,,2h[8:1],,
4,3,25,,7qq5[8:1],1,5<1[8:2],,7/4,,3,,2x,,2x,,
1,,17,,6,4,5,,2bV46[16:3]/7b,,8,8,2,,1,,
1V75[16:3],,3,3,1,,2,,1q5[16:3],,8,8,1,,6<3[8:2],,6,,
3x>6b[8:2],,4,,5x,,4,,2b,,6,4,8,,
3b/5b,,2,4,8,,71,,8<4[8:1]/2pp4b[8:1],,,,8b/2b,,,,
36,,71,,7>5[8:2]/1,,8,,2b,,,,,,2^5[8:1],,
6^1[8:1],,2,,6,,3h[8:1],,2p4b[16:3],,1,,8,,,,
6,,5,,7/3qq8b[8:3],,,,3b/8,,,,7,,7p4[8:3],,
,,2,,,,3,,3h[8:2],,,,8,,7,,
6,,54,,53,,16,,8,7,1-6[8:1],,8,,1/2x,,3x,,8-3[8:1],,
1,,7x/8,,6x,,5x-7[8:1],,4,,3x-5[8:1],,2,,
1x-5b[8:1],,8,,Cf/7x>7[8:4]*<7[8:4],,,,,,,,,,
,,,,,,64,,2b/8b,,17,,6,,28,,53,,8,,1p4[8:1]/2pp4[8:1],,73,,1b/2b,,,,
7q5[8:1]/1q5[8:1],,26,,1b/7b,,,,6/2w6b[8:1],,84,,{96}2b,,,,,,{16},,,E3,E4,E5,
,7,,7,,5-1[8:1],,3,,{384}1?pp8<3[32:84],1xpp8b[32:43]/5xpp4[32:43],Cf,,,,,,,,,,,,,,,,,,,,,,
{16},,,,,,,,,,,,,,,,,,,,,,,,,,,,,,,,,,,,,,,,,,,,,,,
,,E6,,E7,,E8,,E2,,E3,,E4,,A6/A5,,A7,,A8,,A1/A2,,A3,,A4,,
{8}5x,6,7,1x,2,3,6x/5x,7,8,2x/1x,3,4-8[8:3]*-8[8:3],5xh[384:1],3xh[384:1],6xh[384:1],2xh[384:1],
&inote_7=(159)
{1},
{1},
{8}8x,8xh[2:3],,A1,,E8,,E2,,
{8}E7,,E3,,C,,E5/E6,,E7/E3,,E2/B5,,B8/B3,,
(159){8}C,,E5,,46,2,1-5[8:1]/8,7,
5<4[8:4]/Cf,,,,,5,6,7,85,,6/2,,35,6,8/7-3[8:1],1,
3>4[2:1]/Cf,,,,,1,2,3,4/7^5[8:1],,5,,4q8[8:1],,3,1b,
,6x/5,7,,3x/4,2,,1x/8,2x/7h[8:6],,5x,,1x,,3xv8[8:1],,
6bx,,5hx[8:1],2,,2,,2,
,2/E8,,2,,2/E7,,2,
,3/E6,,3,,3/E7,,3,
,3/E8,,3,,35,,64,
,7/5>1[8:3],,7h[8:1],,7,,7,
{16}E2,E3,{8}7/E4,,7,,7/5h[8:2],,7,
,6/4-8[8:2],,6h[8:1],,6,,{16}1x,2x,
3x-5[8:1]/6x,,,,7x-3[8:1],,,,1x-5[8:1],,,,5xw1[8:1],,,,
Cf,,,,73,,6,5,6,,71,,3qq4[32:11],5,4,,
6x,,,,7,,6,5,6,,28,,7^2[8:1],5,6,,
4x,,,,17,,6,4,5,,28,,3qq1[16:2],4,2,,
6x,,,,28,,3,5,4,,17,,7v4[8:1],5,6,,4,,3,,2,,18,,7,,6-2[8:1],4,5,,2x,,
3x,,4,,5,,68,,17,,2-6[8:1],8,1,,7x,,
8,,17,,2,,83,,7,,26,,3,,64,,5,,
53,,4,,64,,5,,34,,2,1,2,,
8b/3b,,,,7/5,,7,,5,,6h[8:2],,,,3,,
2-4[8:1],,,,6-8[8:1],,,,3-5[8:1],,,,8-4-6[8:2],,,,
4,,,,E2,,E3,,E4,,8,,8^6[8:1],,,,
4^2[8:1],,,,7^5[8:1],,,,3^1[8:1],,,,6-4v7[8:2],,,,
2,,,,3x,,3xh[8:2],,,,1,,8>4[8:2],,,,
6h[8:2],,,,,,7>5b[16:5],,,,3,,,,1,,
,,8bx-4[8:1],,,,7,,6-2[8:1],,,,5,,4-8[8:1],,
,,1x,,2x,,3x-5[8:1],,5x-7[8:1]*-1[8:1],,,,,,,,
2b/8b,,,,3,,3,,4,,2-4[8:1]/5h[8:1],,,,5h[8:1],,
,,1-5[8:1]/6h[8:1],,,,6h[8:1],,,,2h[8:1]/4h[8:1],,,,4h[8:1]/6h[8:1],,
,,7h[8:1]/5-1[8:1],,,,7h[8:1],,,,7h[8:1]/4-2[8:1],,,,7h[8:1],,,,
1-5[8:1]/6h[8:1],,,,6h[8:1],,,,{12}2x,4x,3x,6x,5x,7x,
{32}2bx<3[8:11],,{16},,,,,,,,,,,,,,,C,,,,,,,,,,,,,,
,,28,,17,,5,6,4,5,3,,1,8,1,,2b/7b,,,,,,8b/4bw8b[16:4],,,,,,,,,,
,,26,,6<4[16:4],5,7,,1b,,,,,,2h[8:1],,
4,3,52,,7qq5[8:1],3,5<1[8:2],,4,,3,,2x,,,,
6,,74,,1>6[16:4],8,2,,7b,,,,,,8h[8:1],,
6,7,85,,2pp4[8:1],6,4>8[8:2],,5,,6,,7x,,7x,,
8,,82,,6,4,5,,8<4[16:3]/2b,,,,2,,1,,
8>4[16:3],,,,6,,7,,8bp4[16:3],,,,1,,1>6[8:2],,,,
6x>1[8:2],,,,8x,,,,7bx,,3,5,1,,
6bx/4bx,,7,5,1,,2/8,,1-5[8:1]/7-4[8:1],,,,1b/7b,,,,
63,,28,,2<4[8:2]/8,,1,,7b,,,,,,6-1[8:1],,
2-5[8:1],,6,,2,,7h[8:1],,4V61[16:4],,3,,2x,,,,
4,,5,,7qq4[8:3]/2,,,,1b,,,,2,,3p8[8:3],,
,,7,,,,6,,5h[8:2],,,,1,,3,,
75,,8,,1-5[8:1]/2-5[8:1],,38,,2b/1b,,,,8-5[8:1]/7-4[8:1],,61,,
8b/7b,,,,1v6[8:1]*v6[8:1],,28,,3,,4x^7[8:1],,,,1x^4[8:1],,
,,6x^1[8:1],,,,4xq5<4[8:13],,,,,,,,,,,,,,,,,,,,,,,,,,
,,,,,,,,
{96}B6,,,,,,,,,,,,,,,,,,,,,,,,E7/B5,,,,,,,,,,,,,,,,,,,,,,,,E2/E4,,,,,,,,,,,,,,,,,,,,,,,,E3,,,,,,,,,,,,,,,,,,,,,,,,B5/E8,,,,,,,,,,,,,,,,,,,,,,,,
{16}E7,,,,E5,,3x,,2x/8-4[8:1],,1x,,
6b/8bx,,,,3/5,,3,,4,,3h[8:2],,,,6,,
7qq5[16:3],,,,3qq1[16:3],,,,7h[8:2],,,,2^5p8[8:3],,,,
6bh[8:2],,,,,,,,7,,8,,1-4[8:1],,,,
6-1[8:1],,,,2-5[8:1],,,,6q3[16:3],,,,1q5^2[8:3],,,,
6bh[8:2],,,,,,,,8,,1,,2^4^6[8:2],,,,
6p1[16:4],,,,8,,,,7,,,,5h[8:2],,,,2,,3bx^6b[32:5],,,,1,,
8,,7x<3b[16:3],,,,8,,1,,2bx,,3,,45,,6,,
6,,7/1-5[8:1],,8,,
3b/1b,,,,6/4,,6h[16:3],,,5,7,,4,,8,,1v6[16:2]/3,,,,5^2[8:1],,,,
8-4[8:1],,,,2<4[8:3],,,,7bh[8:2],,,,,,8,,
1,,2h[8:2],,,,4,,53,,6,,7,,81,,
7^1v4[16:4],,,,4,,3,,2,,
{12}1b/E5/D5f/B5,,8,,7,,6b/E2/D2f/B2,,5,,4,,2b/E6/D6f/B6,,3,,4,,5b/E1/D1f/B1,,6,,7,,
{16}8b/2b,,3,,74,,6,,53,,4,,65,,7h[8:2]/8,,,,,,28,,
3,5,4,,6h[8:1],,8,,1/7v4b[8:1],,,,4x,,2xV47b[8:2]*V41[8:2],,,,,,,,,,
{64}E1,B8,C,B4,E5,,,,
{16},,,,,,,,,,,,,,,,,,,,,,,,
{64}5x,,4x,,3x,,2x,,
1xw5[8:1]*w5[8:1],,8x,,7x,,6x,,5x,,,,,,,,
{96}1bx,Cf,,,,,{16},,,,,2h[8:1],,
4,3,25,,7qq5[8:1],1,5<1[8:2],,7/4,,3,,2x,,2x,,
1,,17,,6,4,5,,2bV46[16:3]/7b,,8,8,2,,1,,
1V75[16:3],,3,3,1,,2,,1q5[16:3],,8,,7,,6<3[8:2],,6,,
3x>6b[8:2],,4,,5x,,4,,2b,,6,4,8,,
3b/5b,,2,4,8,,71,,8<4[8:1]/2pp4b[8:1],,,,8b/2b,,,,
36,,71,,7>5[8:2]/1,,8,,2b,,,,,,2^5[8:1],,
6^1[8:1],,2,,6,,3h[8:1],,2p4b[16:3],,1,,8,,,,
6,,5,,7/3qq8b[8:3],,,,3b/8,,,,7,,7p4[8:3],,
,,2,,,,3,,3h[8:2],,,,8,,7,,
6,,54,,53,,16,,8,7,1-6[8:1],,8,,1/2x,,3x,,8-3[8:1],,
1,,7x/8,,6x,,5x-7[8:1],,4,,3x-5[8:1],,2,,
1x-5b[8:1],,8,,Cf/7x>7[8:4]*<7[8:4],,,,,,,,,,
,,,,,,64,,2b/8b,,17,,6,,28,,53,,8,,1p4[8:1]/2pp4[8:1],,65,,1b/2b,,,,
7q5[8:1]/1q5[8:1],,35,,1b/7b,,,,6/2w6[8:1]*w6[8:1],,84,,{96}2b,,,,,,{16},,,E3,E4,E5,
,7,,7,,5-1[8:1],,3,,{384}1?pp8<3[32:84],1xpp8b[32:43]/5xpp4[32:43],Cf,,,,,,,,,,,,,,,,,,,,,,
{16},,,,,,,,,,,,,,,,,,,,,,,,,,,,,,,,,,,,,,,,,,,,,,,
,,E6,,E7,,E8,,E2,,E3,,E4,,A6/A5,,A7,,A8,,A1/A2,,A3,,A4,,
{8}5x,6,7,1x,2,3,6x/5x,7,8,2x/1x,3,4-8[8:3]*-8[8:3],5xh[384:1],3xh[384:1],6xh[384:1],2xh[384:1],
