&title=Destination 2F29
&artist=井荷麻奈実
&first=0.32
&des=3F9877
&lv_1=音
&lv_5=15+
&inote_1=(241.46)
{4}
1,1,1,1,1,1,1,1,
1,1,1,1,1,1,1,1,
1,1,1,1,1,1,1,1,
1,1,1,1,1,1,1,1,
1b,E,
&inote_5=(241.46)
{1}
2p7[1:4],
,
,
,
{4}
,6qq3[1:3],,,
{1}
,
,
,
{8}
3h[4:1],5h[4:1],,4h[4:1],6h[4:1],,5,4h[4:1]/5,
5h[4:1],,
{12}
3h[6:1],,4,
{8}
3,3,5,5,
4h[4:1],6h[4:1],,5,5h[8:1]/6h[4:1],,4,4/5,
{12}
3,3,6,
{8}
6,4,4,5,5,3h[8:1],
{16}
4,,3,,5,5,4,,6h[4:1],,4h[4:1],,,,5,,
{12}
6,6,3,
{8}
3,5,5,4,4,6,
{12}
6h[6:1],,5,
{8}
6,6h[8:1],4,4h[8:1],5,5h[2:1],
{16}
3,,3,,3,,3,,3,3,3,3,3h[8:1],,,,
{8}
2/4,3,4,3,2,4,3,2/5,
{16}
3,,5,4,5,,3,,
{12}
4/6h[6:1],,5,
{16}
6,,6,,
6,,4,5,4,,6,,
{12}
3h[6:1]/5,,4,
{16}
3,,3,,
3,,5,4,5,,6,,
{12}
4/6h[6:1],,5,
{16}
6,,5/7,,
7,5,6,5,6,,4h[8:1],,5h[8:1],,3h[8:1],,4h[8:1],,2h[8:1],,
5,,3,4,3,,2/5,,3/4,3h[48:5],
{24}
,4,,
{16}
3,,5,,
4,,6,5,6,,4/7,,
{12}
6h[6:1],,5,
{16}
6,,4,,
5,,4,5,4,,3/6,,
{12}
3h[6:1],,4,
{16}
2,,2,,
{12}
2/7,7,4,
{8}
4,5,5h[8:3],,2,4h[8:3],
{16}
,,7,6,
{12}
5,,2h[12:1],4,,7h[12:1],
{16}
5,,6,,
2,,2,3,
{12}
4/7,6,5,
{16}
2h[8:1],,4,3,4,,2,,
3,,4,,5,,6,,
{12}
4,5,4,
{16}
5,,3/6,,
{12}
2/7,2,5,
{8}
5,4,4h[8:3],,7,5h[8:3],
{16}
,,2,3,
{12}
4,,8h[12:1],5,,1h[12:1],
{16}
4,,3,,
2,,2,,
{12}
2,3,4,
{16}
5,4,3,2,1,8,7,6h[16:5],
{8}
2,2,2,2,
{10}
4,4,4,4,4,
{12}
4b,,,,,,1^4[6:1],,7,
{8}
1,6,
{12}
5,,,8^5[6:1],,2,
{8}
8,3,4,4,
{16}
4/5,,5,4,5,,4,,
{12}
6h[6:1],,5,
{16}
7,,7,,
2/7,,2,4,
{12}
3h[6:1],,4,
{16}
2,,2,,2,,2,3,
4h[4:3],,,,,,7,6,5h[48:20],,,,
{12}
,,4,
4/5,,5,
{16}
4/5,,3,,
{6}
2h[12:5]/3,3,3,
{12}
2b^5[6:1],,,,,,6,7^4[6:1],,,,,
{5}
3,2/3,2/8,1/7,6/7,
{16}
6h[8:1],,,,4h[8:1]/5h[8:1],,,,3h[8:1],,4,,3,4,5,,
5-8[8:1]/6,4,3,,
{12}
,,2h[12:1],
{8}
1,3,
{12}
7,8,7,
6,,1,,3/4,,
{16}
3h[8:1],,5h[8:1],,4,,6,6,
5h[4:1],,7,,7h[8:1],,5,,7,,5,6,4,5,3,4,
2,4,3h[4:1],,,,5,,7,8,7,8,7,,1/6,2/5,
{12}
3h[2:1]/4,,,2,1,8,7,2/6,1/5,4/8,7,6,
{18}
5h[6:1]/8,,,6h[9:2],,,,2h[9:1],,6,7,8,1,,,2,,4,
{16}
3h[16:3],,,1,,,7,5h[16:5],6,,6,,6pp1[2:1],,6,,
6h[4:1],,,,,,,,6,,5,4,3,,3,,3h[8:1],,,,5^7[8:1],,,,3qq8[2:1],,,,
3h[4:1],,,,,,,,3,,4,5,6,,6,,6h[8:1],,,,4^2[8:1],,,,6,,,,
4/8,,,7,,,6,,1/5,2,3h[4:1],,4,,4,,
3,,2/8,7,1/6h[8:1],,8,,6/8,,,,5/6,,4/5,,
{24}
3h[6:1]/4,,,,4,,3^8[8:1],,,3,,,3/8-4[8:1],7,6,5h[8:1],,,
{16}
,,,5,
{15}
3b/6b,,,3/6,,4,5,4,5,4,,,4/5,,,
{1}
1>1[1:3],
,
2>2[2:7],
,
7<7[2:5],
,
6^3[4:3],
{4}
,1,2,3,
1h[4:1]/4,2h[4:3],3h[2:1],,
{12}
,,,4,,,5,,6,
{8}
5,4,
{4}
5/8h[4:1],6h[4:3],7h[2:1],,
{12}
,,,1/8,,,6,5,4,3^6[4:1],,,
{16}
3h[2:1],,,,,,,,6h[16:3],,,4,,,5h[2:1]/6,,
{8}
6,,,,,6,5,4,
{16}
3h[4:1],,,,4,,2,3,4/5,,,6,,,7,,
{12}
7h[6:1],,8,
{16}
6h[8:1],,5h[8:1],,1h[8:1],,2h[8:1],,4,3,4,,
{12}
2,1,8,
{8}
7,2,1/8,,2,3/4,
{16}
,,7,5,6,,,3h[16:1],
{12}
4,,3h[12:1],
{16}
4,,2,,
1/8,,1/8,,
{12}
,7,6,
{16}
5,,2,3,4/5,,6,,
7,,8,,8,,6,,
{12}
4,5,3,
{16}
4h[8:1],,2,,
{12}
7,8,1,
{8}
2,7,1/8,,7,5/6,
{16}
,,2,4,3,,,6h[16:1],
{12}
5,,6h[12:1],
{16}
5,,7,,
1,,1,,
{12}
2,3,4,
{16}
5,6,7,8,
{24}
7,6,5,4,3,2,
{8}
1/5h[8:1],,4/6h[16:1],3h[16:1]/6,3/5,6,4,3,
{12}
4/5v6[4:1],,4/5,,,3,
{8}
4,,5,5,
{12}
3-5[6:1]/6,,3/6,,,8,
{8}
8,,7,7,
{12}
5,,5,6,,6,
{8}
4/5,,2,3,
4/5,5^7[8:1],,4/5,4^2[8:1],,7,6,
{12}
4v3[4:1]/5,,4/5,,,6,
{8}
5,,4,4,
{12}
3/6-4[6:1],,3/6,
{8}
,3h[8:1],8h[8:1],1h[8:1],
{12}
6h[6:1],,5,
{8}
6^8[8:1],4,6pp4[2:1],,,3,,1,
1,2,3,4,5/8,7,6,5,
{12}
3v4[4:1],,5,3,,6,
{8}
5h[4:1],,4,4,
{24}
3^6[8:1]/6,,,,6,,3,,,7,8,1,
{8}
2,,1,8,
{12}
2,,3,
{8}
2/5,5,4,4,
{24}
7,6,5,4,,,
{9}
1,3,1,8,6,8,2h[6:1]/7h[6:1],,,
{16}
1/8,,,1/8,,,,2,1,,,7,8,,6,,
{24}
2,,,2,3,4,5/6,,,7,,,
{16}
8-4[8:1],,,3,,,3,,
{8}
1s5[4:1],,1h[4:1],,,,2/6,3/7,
{10}
4/8,1,2,3,4,
{12}
1b-6[8:1]/5b,2,3,4-8[8:1],,4,
{8}
7h[4:1],,5,6,
{24}
4-8[8:1],,5,,3,,4,,,1,2,3,4/7,,,6,,,3,,,2,,,
{12}
1/8,,3,
{8}
1,6,
{24}
8,,,2,,,7,6,5,4,,,
2,,,2,3,4,5,,,7,,,
{16}
1-6[8:1],8,
{24}
1,2,3,1/4,,,,,,
3,4,3,,5,,
{16}
2,,7,8,
{12}
6,4,1,2,8,5,
7-3[8:1],,3,
{16}
,,2,,1/2-6[8:1],8,7,,
{12}
7^2[8:1],,7,
3^6[8:1],,3,
{8}
8bs4[4:1],,,,,,
{24}
2,1,2,
{16}
,,1,,3,,8v3[8:1],7,6,5,4/8,,,,
{12}
1/5^2[8:1],6,7,8-4[8:1],,8,
{8}
1h[4:1],,3,2/4,
{24}
5-1[8:1],,4,,6,,5,,,8,7,6,2/5,,,3,,,6,,,7,,,
{12}
1/8,,6,
{8}
8,3,
{24}
1,,,8,7,6,2/5,,,3,,,
{18}
4b/8b,,6,5,4,,2b/6b,,8,7,6,,4b/8b,,2,1,8,,
{16}
2/6,3,4,5,
{12}
1b^6[8:1],,1,4-8[8:1],,4,
{8}
7,,
{24}
1,,,5,6,7,
{16}
2-6[8:1]/8,,1,,2,,,7h[16:3],,,8,,
1-5[8:1]/6,2/5,3/4,,1/6h[4:1],,,,
{12}
,,2,,5,1,
{10}
4/8,5,6,7,8,
{12}
1b/5b^2[8:1],,,7-3[8:1],,7,
{8}
1-5[8:1],1,6^1[8:1],6,
{12}
3-7[8:1],,3,
{16}
5-8[8:1],,5,,1,,1,2,3/8,,7,,
{10}
6,4b,2,4,6b,3,5,7b,5,3,
{6}
6b,8,2/8b,3h[300:1],1b,1/7,
{12}
6/8,1,2,
{16}
3/5,,4,6,
{24}
3h[8:1],,,1,8,7,
{16}
1p5[8:1]/6,2,3,4,
{12}
1,,2,
{16}
4,,4,,4,,4h[4:1],,,,1pp6[8:13],2,
{1}
3qq5[2:3],
,
{12}
8,7,6,5/8,1,2,
{16}
3/8,7,6,5/8,1,2,3/8,7,
6,5/8,1,2,
{24}
3/8b,7,6,5/8b,1,2,3,4/8b,7,6,5,4/8b,1,2,3,4/8b,,,
{1}
6pp4[4:5]/8qq3[4:5],
{12}
,,,,,,,,,1/5,2/6,3/7,
{16}
4/8,5,6,7,
{12}
4/8,1/5,2/6,
{16}
3/7,8,1,2,
{12}
3/7,4/8,1/5,
{16}
2/6,7,8,1,
{24}
2/7b,6,5,4/7b,6,5,4/8b,7,6,5/8b,7,6,5/8b,4/7,3/6,2/5,,,
{1}
1-4[2:11]/4,
,
,
,
,
,
,
,
E
