&title=パノプティコン[Remix]
&artist=初音ミク;吉田夜世
&first=-1.44
&des=ReaL2sN
&lv_5=13+
&inote_5=(160)
{1},
{8},,,,,,,,
{8}1b>5
[2:1],,,,,,,1<3[4:3],
{1},
{8}1p5
[4:2],,,,,,,1>8
[4:3],
{1},
{8}8b<4
[2:1],,,,,,,8>6[4:3],
{1},
{8}8p4
[4:2],,,,,,,8q1[4:2],
{8},,,Ch
f[8:5],,,,,
{8}7x,5,6,4,5,3h[4:1],,,
{8}1x,2,1,3h[4:1],,4,3,4,
{8}2x,4,3,5,4,6h[4:1],,,
{8}3x,5,4,5,,6,5,6,
{8}4x,7,5,6,4,6h[4:1],,,
{8}5x,7,8,7h[4:1],,1,7,8,
{8}6x,4,5,3,4,2h[4:1],,8>8[2:1],
{8},,,Chf[8:5],,,,,
{8}7xpp2[16:7],,5h[8:1],,3>7[16:3],,4h[8:1],,
{8}1xpp8[16:5],,5h[8:1],,6p8[16:3],,7h[8:1],,
{8}2xqq7[16:7],,4h[8:1],,6<2[16:3],,5h[8:1],,
{8}3xpp2[16:5],,7h[8:1],,8p2[16:3],,1h[8:1],,
{8}4xqq1[16:7],,6h[8:1],,8>4[16:3],,7h[8:1],,
{8}5xpp4[16:5],,1h[8:1],,2p4[16:3],,3h[8:1],,
{8}6qq3[16:7],,8h[8:1],,2>6[16:3],,1,1p8
[4:2],
{8},,,Chf[8:5],,,,,
{8}8-2[8:1],,4-8[8:1],,6,6V48[4:1],,,
{8}2h[8:1],,6h[8:1]/1h[8:1],,,5h[8:1],6h[8:1],7h[8:1],
{8}1-7[8:1],,5-1[8:1],,3,3V51[4:1],,,
{8}7h[8:1],,3h[8:1]/8h[8:1],,,4h[8:1],3h[8:1],2h[8:1],
{8}8^3[8:1],,4-8[8:1],,7^4[8:1],7,,,
{8}2h[8:1]/3h[8:1],,7h[8:1]/1h[8:1],,,7,8,1,
{8}Ch[1:1]/2h[8:1],,3h[8:1],,4h[8:1],,5h[8:1],,
{16}4,,3,,2,,1,,7,6,5,4,3,2,1,8,
{1}7/3s7b[8:11],
{8},,,,,Ch[8:1],,,
{8}7b-3[8:1]/2,,5-1[8:1],5,8^3b[8:1],7,8b/6,,
{8}7^2b[8:1],6,7b/5,,6^1b[8:1],5,4/6b-2-8[16:3],,
{8}5,5bV73[16:3],,4,4h[4:1],,3,3,
{8}5<3[4:1],,3>5[4:1],,Cf,,,,
{8}7-3[8:1]/5,,7-5[8:1],4-8[8:1],7,4,,4-6[8:1],
{8},4/8-4[8:1],2,8,,3,4qq5<4[4:3],3,
{8}Cf,,,,,,,,
{16}1/7,,2,,3/5,,4,,8,7,6,5,2,3,4,5,
{8}8b^3[8:1],,5-1[8:1],5,8-4b[8:1],7,8b/6,,
{8}7-3b[8:1],6,7b/5,,6-2b[8:1],5,4/6bV84[16:3],,
{8}2,2bV48[16:3],,5,5-1^6[4:1],6,2,2,
{8},1v4[8:1]/5v8b[8:1],8V64b[16:3]/4V28[16:3],,,,,,
{8}2-6[8:1]/4,,2-4[8:1],5-1[8:1],2,5,,5-3[8:1],
{8},5/1-5[8:1],7,1,,6,5pp4>5[4:3],6,
{8}Cf,,,,,,,,
{8}8/2,7,6/4,5,{16}1,2,3,4,5,6,7,8,
{8}Cf/1b^6[8:1],,4-8[8:1],5,{64}4-2b[8:1]/1^6[8:1],,
,
,,,,,{8}2,4b-8[8:1]/1,,
{64}4-2b[8:1]/1^6[8:1],,,,,,,,{8}2,4b-8[8:1]/1,,{64}4-2b[8:1]/1^6[8:1],,
,,,,,,{8}2,1/4b-8[8:1],,
{8}4,1bV37[16:3],,8,8b-4-6[16:3],,1,1b,
{8},2-6[8:1],8-4[8:1],2,{64}8b,Cf,,,,,,,,,,,,,,,,,,,,,,,1,,,,,,,,
{8}8-4[8:1]/6,,8-6^5[8:1],5-1[8:1],8,3,4,5-7[8:1],
{8},5/1-5[8:1]*-3[8:1],3,1,,4,5p4>5[4:3],4,
{8}Cf
,,,,,,,,
{8}4/5,3/6,2/7,1/8,{32}E1
,E2
,E3
,E4
,E5
,E6
,E7
,E8
,A1
,A2
,A3
,A4
,A5
,A6
,A7
,A8
,
{8}A1
f/5b<3[4:1],,3p5[16:3],,4-8
[8:1],4,4,6^3b[8:1],
{8}3,E8/B7,E2/B2,8qq8
[4:1],1-4[8:1],8,1,,
{8}5^4-1[8:1],5,8-5[8:1],8,2-7[8:1],2,6-3[8:1],6,
{8}8^1-4[8:1],8,5-8[8:1],5,{32}E1f,D1,,,,,,,{8}B5/B4,,
{8}1-5[8:1]/3,,1-3^4[8:1],4-8[8:1],1,6,5,4-2[8:1],
{8},4/8-4[8:1]*-6[8:1],6,8,,5,4qq4pp4[4:3],5,
{8}Cf
,,,,,,,,
{8}1h[8:1],8h[8:1],7h[8:1],6h[8:1],5h[8:1],{16}2,6,3,5,4,,
{8}5>7[8:3]/4,,1,,5,5,,3/4,
{8}3h[8:1]/4h[8:1],,2h[8:1]/8h[8:1],,,8,7,6,
{8}4<2[8:3]/5,,8,,4,4,,6/5,
{8}6h[8:1]/5h[8:1],,7h[8:1]/1h[8:1],,,1,2,3,
{8}5>1[4:1]/4,,1<5[4:1],,5,5,,3/4,
{8}3h[8:1]/4h[8:1],,2h[8:1]/5h[8:1],,,8,7,6,
{8}4<8[4:1]/5,,8>4[4:1],,4,4,,6/5,
{8}6h[8:1]/5h[8:1],,7h[8:1]/4,Ch[8:5],,,,,
{64}1b>5[2:1]*<5[2:1],,,,,,,,,,,,,,,,,,,,,,,,,,,,,,,,,,,,,,,,,,,,,,,,,,,,,,,1>7[4:3]*<3[4:3],,,,,,,,,
{1},
{64}1p5[2:1]*q5[2:1],,,,,,,,,,,,,,,,,,,,,,,,,,,,,,,,,,,,,,,,,,,,,,,,,,,,,,,1p8[4:3]*>8[4:3],,,,,,,,,
{1},
{64}8b<4[2:1]*>4[2:1],,,,,,,,,,,,,,,,,,,,,,,,,,,,,,,,,,,,,,,,,,,,,,,,,,,,,,,8<2[4:3]*>6[4:3],,,,,,,,,
{1},
{64}8q4[2:1]*p4[2:1],,,,,,,,,,,,,,,,,,,,,,,,,,,,,,,,,,,,,,,,,,,,,,,,,,,,,,,8q1[4:3]*<1[4:3],,,,,,,,,
{1},
E
