&title=Crossmythos Rhapsodia
&artist=Acotto vs Potwi
&first=0
&des=OTTO
&lv_5=15
&inote_5=(198)
{4},,,{32},
{16}3,4,3,4,2h[8:1],,,38,,,8,1,7h[8:1],,,16,,,4,5,3h[8:1],,,26,,,1,7,1h[4:1],,,,4h[8:7],,,,3,,,,,,1,,,,8,,1/7h[8:23],,,,,,5h[4:1],,,,,,4h[4:1],,,,,,3h[4:1],,,,,,2h[4:1],,,,,,1h[4:1],,,,,,8h[4:1],,,,,,8,,,,1,,28,,37,,
{16}37,,6,5,6,,3,,6,5,6,,2,,7,8,7,,
{16}1-5[8:1],8,,2,1,,3,,3,,6,4,6,,7,,3,4,3,,6,,3,4,3,,2,8,1,7,8q1[2:1],,,,2,,,,,,,,,,,,
{16}25,,,,3,4,3,4,2,,8-4[8:1],1,,7,8,,6,,6,4,,3,5,,2h[4:1],,,,1-5[8:1],,,,18,,,,
{16}6,5,6,5,7,,1-5[8:1],8,,2,1,,3,,3,5,,6,4,,7h[4:1],,,,1,8,1,8,1h[8:1],,7,7,1h[8:1],,8,,
{16}2,1,2h[8:1],,8,,37,,4,6,4,6,3,7,3,7,2,8,2,8,
{24}1h,2,3,1,8,7,
{16}
{16}6/2h[16:3],,,4h[16:3],,,5h[16:3],,,7h[16:3],,,5,6,4,5,3h[16:3],,,1h[16:3],,,8,,1/7h[16:4],,,,5h[4:1],,,,4h[4:1],,,,3,4,3,4,2,,6,5,6,5,7h[4:1],,,,1h[4:1],,,,8h[4:1],,,,2b,,3b/7b,,,,6,4,6,4,7,,
{24}2,3,4,8,7,6,1,2,3,48,,,
{16}7,6,7,5,8-4[8:1],,,,3,,2,5,2,5,3,6,3,6,8b,,1b/7b,,2b/6b,,
{16}3,5,3,5,3,5,3,5,3b,,2b/4b,,1b/5b,,7,8,7,,2,1,2,,
{16}6,5,6,4,6,5,4,3,1,2,3,4,7,6,5,4/8-4[8:14],,,,,
{16}1,7,1,7,1,7,1,7,1,7,1,7,1,7,1,7,1,7,1,7,1,7,1,7,2,,,,
{12}6,6,4,5,3,3,4,4,3,3,1,1,8,8,6,6,4,5,3,5,2,2,
{16}8,1,8,1,8,1,8,1,8,1,8,1,8,2,8,1,7,2,8,
{32}1,2,3,4,1,8,7,6,1,2,3,4,1,8,7,6,5b/1b,,,,,,,,
{16}3,4,3,,1b/5b,,,,6,5,6,,4b/8b,,,,
{24}8b/1b-5[8:1],27,36,45,,,
{16}1>4[8:1],,7,7,1p8[4:1],,5,5,1,,,,6,,,,
{16}7,5,6,3,4,2,7,1,8-6[8:1],,2,2,8-4[8:1],,5,5,8,,3,5,2,,17,,1h[4:1]/7,,,,
{32}8,7,6,5,8,1,2,3,
{16}8b-4[8:1],,,,8/3-8[8:1],,,,3/7h[4:1],,,,
{32}1,2,3,4,1,8,7,6,1b-5[8:1],,,,,,,,
{16}6-1[8:1]/1,,,,26,,,,3,,28,,
{16}7,1,7,,3,5,3,,7,1,,2h[8:1]/6h[8:1],,,1v4[8:1]/7v4[8:1],,,,1b<3[2:1]/7b,,,,,,,,,,,,,,,,,,18,,,,3h[8:1],,,2h[8:1]/5h[8:1],,,6,,
{16}47,3,2,1,4,5,6,7,8/4-8[8:1],,,,41,,,,3b/7b,,2,1,2,8,2,,37,,1-5[8:1],8,,2,1,,3b-8[8:1],,2,,3/4b-7[8:1],,5,,3b/4b,,,,1b,,,,{16}2,4,3,6,5,7,2,8,1-3[8:1],,7,7,1-5[8:1],,4,4,1,,6,4,7,,82,,8h[4:1]/2,,,,
{32}1,2,3,4,1,8,7,6,1b-5[4:1],,,,{16},,,,,,
{12}7,7,7,5,5,5,4,4,4,2,2,2,8,8,8,18,18,18,2bq5[1:2]/7b,,,,,,,,,,,,,,,,,,,,,,,,
{12}7h[1:1],,,,,,,,,,,,5,,6,6h[6:1],,4,4h[6:1],,
{12}5,3,6,4,7h[6:1],,8,7h[6:1],,1,8,2,4h[6:1],,3,3<5[8:1],,,,,
{12}6,7,4,3,5,6,3,2,
{12}4<7[8:1],,3,4,2,,1-5[8:1],,8,1,7,,64,,5,3,4,,2,2,8,8,1,1,2/6p4[1:1],,,,,,,,,3,,,
{8}2,,1,1,2pp5[1:1]/8,,,6,,,7,,7,,8,,7V51[8:6]/1,,,,,,1<5[8:6],,,,,,5p7[1:1]*>7[1:1],,,,,,,,,,,,
{16}2,4,2,4,2,6,2,6,2,4,2,4,2,6,2,6,2,8,2,8,2,6,2,,7,5,7,5,7,3,7,3,7,5,7,5,7,3,7,3,7,1,7,1,
{16}8,2,8,2,8,,,37,,4,6,4,,5,3,,7,8,7,1,7,,,62,,5,3,5,,4,6,,2,1,2,8,2h[8:1],,,1h[8:1]/7h[8:1],,,3h[8:1],,,2h[8:1]/5h[8:1],,,6<1[8:1],,5,,6bpp4[1:3]/4b,,,,,,,,,,,,,,,,,,,,,,,,,,,,,,,,,,,,,,,,,,,,,,,,,,,,,,,,
{8}3h[1:1]/6,,,,1,,8,,7h[1:1],,5,,4,,3,,2<5[4:1],,5,,,,
{16}7,8,7,,1,,2,4,2,,8,,7,1,7,,26,,3,4,3,5,3,5,4q5[1:2],6,5,7h[1:2],,,,,,,,,,,,,,,,,,,,,,,,,,,,,,,,,,,,,
{16}4/8h[4:1],,
{24},,,6,5,4,3,,,
{8}7,7,1,1,6>3[8:1],3,6,2,2h[4:1],
{24}1,8,7,6,,,
{8}1,1,7,7,1>3[8:1],7,1,7<5[8:1],1,7,8,1,26,
{16}2,4,3,4,3,1,5,4,5,,1b/7b,,2b/6b,,3b/5b,,
{16}7,1,7,2,7,3,7,,4b/6b,,3b/7b,,2b-6[8:1]/8b-4[8:1],,,,8b/2b,,,,
{16}3,5,3,4,2b,,7,1,7,2,8b,,1,7,1-5[8:12],,,,,,
{16}8,2,8,2,8,2,8,2,8,2,8,2,8,2,8,2,8,2,8,2,7b,,,,
{16}3,,3,4,2,,6,5,7h[4:1],,,,1,,8,8,2h[4:1],,,,
{12}4,4,3,5,5,4,6,1,8,3,5,2,
{16}2b,,6,5,7,,3,5,2,,6,4,8bz4[4:1],,,,84,,,,,,,,3b/5b,,2,1,2,8,2,,3bv8[8:1]/7b-4[8:1],,,,,,,,
{12}2h[12:1]/5h[12:1],,4h[12:1]/7h[12:1],,1h[12:1]/8h[12:1],,
{8}27,
{16}3,4,3,,6,5,6,,3,4,1,,6,5,
{12}8b-3[16:1],,2b-6[16:1],,5b-1[16:1],,3b-8[16:1],,7b-4[16:1],,2b-5[16:1],,6bp4[8:10],,,,,,,,,,,,,,,,,,,,,
{16}35,,,,
{16}1,7,2,8,8,2,4,3,3,6,4,7,3,5,2,6,1,8,1,8,1,8,1,8,2b/7b,,,,3,3,4,,25,,,,6,6,5,,47,,,,1s5[3:2],,,,,,,,,,,,,,,,6,6,4,,3b/7b,,,
{16}2,2,8,8,1,1,7,7,5,5,6,4,4,5h[8:1],,,2h[8:1]/6h[8:1],,,8b/1b,,2b/7b,,3,4,3,4,3,,
{16}8b-4[8:1],,,,,,,,
{16}3,5,,4,6,,37,,{24}1b/8b-4[8:1],72,63,54,,,8bpp3[4:1]*qq5[4:1],,,,,,8b,,,,,,,,,,,,
{16}7b,3,8,2,4,1,6,5,8>3[8:1],,4,4,8<5[8:1],,6,6,8,,3,4,2,,71,,1h[4:1]/7,,,,
{24}8,1,8,1,,,
{24}2,4,2,4,,,7,5,7,5,,,
{24}2,8,2,,
{16}7h[8:1]/3h[8:1],,,8v5[8:1]/2v5[8:1],,,,8b>6[2:1]/2b,,,,,,,,,,,,
{16},,
{24}1-5[8:1],7,1,7,,,8b,,,,,,
{16}6h[8:1],,,4h[8:1]/7h[8:1],,,3,,
{16}2b,2,4b,4,5b,5,7b,7,1h[4:1],,,,
{24}7,8,2,3,4,5,
{16}2b,6,1,7,5,8,3,4,1<6[8:1],,5,5,1>4[8:1],,3,3,1,,6,5,7,,28,,2h[4:1]/8,,,,
{32}1,8,7,6,1,2,3,4,
{16}7b,5h[8:1],,6,4h[8:1],,5,3h[8:1],,4,2,,2h[8:1],,
{16}1-5[8:1],8,,7,1,,6,,6,,
{32}4,3,2,1,8,7,6,5,4/8-4[8:1],,,,,,,,1b/8b,,,,,,,,
{16}3,5,2,4,1V37[4:1],,,4,1,,6,,6h[4:1],,,,
{24}7,8,1,2,3,4,5-1[8:1],,,
{16},4,5,,3h[8:1],,
{16}8,2h[8:1],,7,1h[8:1],,6,,
{16}3,52,,6,74,,8b/1b,,7b/2b,,,,
{12}6,6,6,5,,,3,3,3,4,,,2,4,1,7,3,8,2,6,4,7b/1bs5[2:1],,,,,,
{16}6,,,,,,
{16}6,5,7b-4[8:1]/4b,,,,,,,,
{16}2,1,2,1,
{32}2,3,4,5,6,7,8,1,
{16}2,4h[8:1],,3,5h[8:1],,4,6h[8:1],,5,7h[8:1],,6,8h[8:1],,2,2h[8:1],,4,4h[8:1],,5,5h[8:1],,7,7,1b-5[8:1],,,,,,,,
{12}46,37,,
{24}2,1,2,1,2,1,2,1,2,1,,,7,5,7,5,7,5,7,5,7,4,8,4,8,4,8,4,8,4,8,4,8,
{16}3,2,1,8,5,6,7,8,2,3,4,5,8,7,6,5,4/8,,,,,,
{16}2bq5[1:2]/6bq1[1:2],
