&title=Unsinkable Memory
&artist=打打だいず
&first=0
&des=Alplha
&lv_5=14 +
&des_5=Alplha
&inote_5=
(184){4},,,,{1}C/B1/A1,
C/A2/B2,
C/B3/A3,
C/B4/A4,
C/5-1[4:1],
C/6v1[4:1],
C/7v1[4:1],
C/8v1[4:1],
C/2v8[4:1],
C/3v8[4:1],
C/4-8[4:1],
5w1[8:3],
{8}6/1h[4:3],,,7,,,{4}7pp4[4:3],
{1}C,
{8}3/8h[4:3],,,2,,,{4}2qq5[4:3],
C,6,6,6-3[8:1],
6/4,8/2h[8:3],{8},C,{4}7/3-6[8:1],
3/5,1/7h[8:3],{8},C,{4}2h[1:1]/6p4>7[4:3],
,,,,{2}6/8-4[3:2],
8b-4b[8:1],
{16}7/3,6,5,4,3/7,2,1,8,7/3,2,1,8,3/7>3[4:1],6,5,4,
{4}7x/3x<7[4:1],7x>3[4:1],3x<7[4:1],7x,
{16}2,3,4,5,6/2,7,8,1,2/6,7,8,1,6/2<6[4:1],3,4,5,
{4}2x/6x>2[4:1],2x<6[4:1],6x>2[4:1],2x,
{16}8,7,6,5,4/8,1,2,3,8/4,7,6,5,4/8<5[8:1],1,2,3,
{4}4/8x>4[6:1],8x<5[8:1],8x>4[6:1],8x,
{8}5,6/5,2/8,5,1/7,3,8/2,6,
{24}1,2,3,8,7,6,1,2,3,8,7,6,1x,8x,1x,8x,1x,8x,{32}2q5[2:1],3,4,5,6,7,8,1,
{2}2,{4}6,7,
8b/2h[4:1],{8}B7/B8,3h[4:1],,5,{4}6/4,
1/7h[4:1],B2/B1,{8}6,4,{4}5/3,
8/2h[4:1],{8}B7/B8,3h[4:1],,5,{4}6/4,
1/7h[4:1],{8}B2/B1,{16}6,6,{8}5,{16}3,3,{8}4,{16}8,7,
{4}1h[4:1],{8}B7/B8,2h[4:1],,6,{4}3/5,
1/7h[4:1],3,5/6,1/7-3[8:1],
7b/2x-5[8:1],{8}2,8x-4[8:1],,8,{4}1x-5[8:1],
{8}1,7x,,3/5,{16}6/2,3,4,5,{4}2/6,
7h[4:1]/1b-5[8:1],{8}1,6h[4:1],,4,{4}3/5,
2h[4:1]/8-4[8:1],8,{8}3,5,{4}6/4,
7h[4:1]/1-5[8:1],{8}1,6h[4:1],,4,{4}3/5,
2h[4:1]/8<5[8:1],{8}8,{16}4,4,{8}1>4[8:1],{16}5,5,{4}1,
{8}1/7h[4:1],2,3-7[8:1],3h[8:3],,,{4}8>4q5[2:1],
{2}6xh[4:1],{8}6,7,{4}1/8,
{8}8/2h[4:1],7,6-2[8:1],6h[8:3],,,{4}1<5p4[2:1],
{2}3xh[4:1],{8}2,3,{4}8/1-5[8:1],
1x/7,{16}8/4,7,6,5,{4}4/2h[4:1],4<8[8:1],
4x/3,{16}1,2,3,4,{4}5/7h[4:1],8,
4b/5bh[8:1],{16}4,5,4,5,3,6,4,5,1-5[8:1],8,2,7,
{1}1bxpp2[16:7]*<3[8:3],
{8}8-5[8:1],5-7[8:1]/3-1[8:1],8/1-4[8:1],3,,E5,C,E1,
,E5,C,E1,,E5,C,E1,
1-4[8:1],4-2[8:1]/6-8[8:1],1/8-5[8:1],6,,E1,C,E5,
,E1,C,E5,,E1,C,E5,
4-7[8:1],7-5[8:1]/1-3[8:1],4/3-8[8:1],1,,E4,C,E8,
,E4,C,E8,,E4,C,E8,
2-5[8:1],5-3[8:1]/7-1[8:1],2/1-6[8:1],7,,C,8-6[8:1],4-2[8:1],
8-4[8:1],4,8,3-6[8:1],7-2[8:1],3,{4}7,
{24}1/5-1-7-3[2:1],4/8,{12}7/3h[12:5],,,,,,,,{4}2,
{24}8/4-8-2-6[2:1],5/1,{12}2/6h[12:5],,,,,,,,{4}7,
{24}5/1-5-3-7[2:1],8/4,{12}3/7h[12:5],,,,,,,,{4}6,
{24}8/4-8-2-6[2:1],5/1,{12}2/6h[12:5],,,,,,,,{4}1,
{24}4/8,3/7,{12}6/2-5V38[24:13],,,,,{4}7-4[8:1],7,
{24}6/2,7/3,{12}4/8-4-6-1[24:13],,,,,{4}2-5[8:1],2,
{24}3/7>4-8[8:5],6/2,{12}1/5h[6:1],,,,,{4}7-5[8:1],7,
{24}6/2>7[8:3],3/7,{12}8/4h[6:1],,,,,{4}8-4b[8:1],1b,
7/3h[4:7],{8},,,,5,4,
{4}E3,E2,E1,E8,
4/6h[2:3],{8},,,,5,5,
{4}7,8,1,2-5[8:1],
{8}2b-8[8:1],6h[8:1],2,5h[8:1],7-2[8:1],5h[8:1],{4}7-4[8:1],
{8}7-1[8:1],3h[8:1],7,4h[8:1],2-7[8:1],4h[8:1],{4}2-5[8:1],
{8}2,7-4[8:1],4,7,1-5[8:1],3,{4}1<6[8:1],
{8}1,2>5[8:1],5,2,8w4[8:1],1/7,{4}8,
{8}1x-5[8:1],5,1,8x,{4}7-3[8:1]/2-8[8:1],7x/2x,
{8}4x-8[8:1],8,4,1x,{4}6-1[8:1]/2-5[8:1],6x/2x,
{32}4x,5,6,7,8,1,2,3,4x/5x,6,7,8,1,2,3,4,5x/1x,8,7,6,5,4,3,2,1x/8x-4b[8:1],7,6,5,4,3,2,1,
{4}8xh[4:3],3b,2b,1b,
{8}7b<4[8:1],{16}8,1,{8}7,{16}2,2,{8}7-4[8:1],{16}8,1,{8}7,{32}8,1,2,3,
{8}7-4[8:1],8-3[8:1],7,8,5-8[8:1]*-2[8:1],4,{4}5b,
{16}1,2,3,4,6/5h[8:1],7,8,1,2/6v1[8:1],3,4,5,{8}6x/2>5[8:1],3,
2x/7-4[8:1],6,7x/2-6[8:1],1,2x-8[8:1]/7-3[8:1],8,{4}2x/7,
{8}7<4[8:1],{16}8,1,{8}7,{16}1,1,{8}7-4[8:1],{16}1,2,{4}7x-2[8:1]/3x-6[8:1],
7/3,{16}1x/5xpp1[8:5],4/8,3/7,2/6,{4}1/5,2-4[8:1],
{6}2,{12}8,3,{6}7,6/4,{12}3,5,{6}2,
{32}7/1x,6,5,4,3,2,1,8,7/3x,6,5,4,3,2,1,8,5x/7,6,5,4,3,2,1,8,{4}7/Cf,
{8}2>5[8:1],{16}1,8,{8}2,{16}7,7,{8}2-5[8:1],{16}1,8,{8}2,{32}1,8,7,6,
{8}2-5[8:1],1-6[8:1],2,1,4-1[8:1]*-7[8:1],5,{4}4b,
{16}8,7,6,5,3/4h[8:1],2,1,8,7/3v8[8:1],6,5,4,{8}3x/7<4[8:1],6,
7x/2-6[8:1],3,2x/7-3[8:1],8,7x/2-5[8:1],1,2x/8w4b[8:1],1,
{4}8bx,{8}1-5[8:1]/7-3[8:1],6/2,{4}1x/7x,{8}7/1-5[8:1],8,
1b/7x<4[8:1],6,{32}7b/8x-4[8:1],1,2,3,,,,,{8}7b/8x>3[8:1],6,{32}7x/8b,6,5,4,,,,,{8}4x/3x,
4x/3x,5x/2x,5x/2x,4/7,7,8/1,1,
{16}4,2,4,2,5,3,5,3,6,4,6,4,{32}8,7,6,5,4,3,2,1,
{4}8x/4b,{16}4,6,4,6,3,5,3,5,2,4,2,4,
8x,7,6,5,1x,8,7,6,8x,7,6,5,{24}2x,3,4,5,6,7,
{4}8x/1b,{16}2,4,2,4,3,5,3,5,4,6,4,6,
1x,2,3,4,8x,1,2,3,1x,2,3,4,{24}2x,1,8,7,6,5,
{4}4x/8b,{16}1,7,1,7,2,6,2,6,3,5,3,5,
{24}1x,8,7,6,5,4,8x,1,2,3,4,5,1x,8,7,6,5,4,8x,1,2,3,4,5,
{8}6/8-4[8:1],7/1,8/2,2,{16}7,5,6,4,{8}7,6/5,
3/1-5[8:1],2/8,1/7,7,{16}2,4,3,5,{8}2,3/4,
6/5,7/8,2/1,3/4,{16}7,5,6,4,{8}5,7/2,
{24}1,8,1,8,1,8,2,7,2,7,2,7,{32}3,4,5,6,7,8,1,2,5/3,6,7,8,5/1>5z1[8:9],6,7,8,
{1}5/1<5s1[1:1],
{8},,,,,,,,6,
5,4,3v1[8:7],,E8,E7,E6,
,E8,E7,E6,,E8,E7,E6,
3,4,5,6v1[8:7],,E3,E4,E5,
,E3,E4,E5,,E3,E4,E5,
7,8,1,2v5[8:7],,E1,E8,E7,
,E1,E8,E7,,E1,E8,E7,
5,6,7,8v1[8:7],,E3,E4,E5,
,E3,E4,E5,,E3,E4,E5,
{1}6qq4[1:1],
4qq2[1:1],
2qq8[1:1],
8qq6[1:1],
7pp2[4:5],
6qq3[4:5],
7p2q7[4:7],
6q3b[4:3],
E
