&title=Super Nova Project
&artist=shadow_bling
&first=0.05
&des=LMCT 4
&des_5=LMCT
&lv_5=14
&inote_5=(172){4},,,2/8,
{2}6/1>1[8:9],{8}7,,,8h[8:5],
,,,,,,{4}3/7,
{2}2/6<6[1:1],{8}3,,,1h[8:5],
,,,,,,5,2,
{2}7h[4:1]/8<2[1:1],{8}1h[8:1],,,6h[8:5],
,,,,4h[4:3],,,6h[8:7],
,,,,,,,,{1}Ch[4:3],
{4}7h[4:7],8,,1,
,2,,,4h[4:7],
6,,7,
,8,,,2h[4:1],
B1,6h[4:1],B7,
4h[4:1],B3,{8}7h[8:3],,,5h[8:11],
,,{4}4h[4:7],{16},,,,,,,,,,,,,,,,,,,5,
3,2,1,8,
{4}7-4[8:1],3,{8}3-1[8:1],1-7[8:1],7,5h[8:3],
,,7,8,1/6h[4:1],2,3h[4:1],7,
{4}8v5[8:1],{8}2-6[8:1],3,1-5[8:1],7,1,2h[8:3],
,,8,{16}7,8,{8}7,3h[8:1],4h[8:1],5h[8:1],
{4}7h[4:1],{8}3,2,1/6,{16}5,4,{8}5,6/3h[8:5],
,,8,7,6,{16}4,3,{8}4,2h[8:3],
{2}8h[4:1],{8}7/3,{16}6,5,{8}6h[4:3],4h[8:7],
,,,,,,,,{1}Cf/5bxq4[8:3]*-8[8:3],
1<4[8:3],
2<6[8:3]/8-4[8:3],
8-5-3[8:3],
{8}4/6,7,3/5,2,4/6,8,3/5,1,
3/6,{16}5,4,{8}5,{16}6,5,{8}6,{16}3,4,{8}2h[8:1],8,
{16}1,2,8,3,7,4,6,5,7,8,6,1,5,2,4,3h[16:13],
{1}5x-8-4-1[2:1],
{4}Cf/1bxs5[8:3],{8}1,E8,{16}E7,,,E6,,,{8}E5,
,6xh[8:3],3,4,{48}5w1b[12:1],,,,,,,,,,,,,B5,Cf,B1/B2/B8,,,,,,,,,{4}3bx-7-1-4[8:3],
{8}3bx,5,{16}6bx-1[8:1],,,5,{8}6bx,4,
2bx-4[8:1],1-5[8:1],2bx,1,{16}8bx-4[8:1],,,1,{8}8bx,2,
{4}6bx-2-8-5[8:3],{8}6bx,4,{16}3bx-8[8:1],,,4,{8}3bx,5,
7bx-5[8:1],8-4[8:1],7bx,8,{4}1bxs5b[8:1]*-4[8:1],{16}1b,Cf,,,{4}6bx-4-8-5[16:7],
{8}4b,3b,{16}2b,,,2bh[16:3],,,{8}5b,
{16},,3b,4b,{8}3b,1b,{16}8bh[8:3],,,2b,,,{8}2b,
E6/B5,A3/D3,E8/B8,{16}E3,B3,B4,,,B6/E7,,,{8}A8/D1,
Ch[2:1],7x,6x,5x,{4}4x-1[8:1]*-7[8:1],4x,
4b>3-8[16:3]/8b<7-4[16:3],8/4<1b[8:3],{16}2,,,3,,,{8}4-2[8:1],
{16},,4-8[8:1],5,{8}5,4,6,{16}7,7,1,2,3,4,
{4}1b<8-5[16:3]/5b>4-1[16:3],5/1>6b[8:3],{16}6,,,7,,,{8}8-6[8:1],
{16},,8-4[8:1],2,{8}2,8,3-8[8:1],{16}5,5,,,,,{8}1/7,
7,2/8,8,1/3,1,2/4,2,
3/5,3,4/6,4,5/7,5,6/8,6,
{16}3,4,{8}2,{16}6,5,{8}7,{16}4,5,3,3,5,4,6,6,
{4}3/Ch[4:1],{16}E8,B3,B6,E1,A7,D4,D6,A2,A8,B3,B6,D2,
{8}8bx-4[8:1],2,8-6[8:1],3,8-4[8:1],2,8-6[8:1],{16}3,3,
{8}8-4[8:1],2,{4}8<6[8:1]/4>2[8:1],4/8-4[8:1],{8}8,{16}3bx,2bx,
{8}1bx-5[8:1],7,1-3[8:1],6,1-5[8:1],7,1-3[8:1],{16}6,6,
{8}1-5[8:1],7,{4}1>3[8:1]/5<7[8:1],5/1-5[8:1],{8}1,{16}6bx,7bx,
{8}4/8bx,3,{16}2/6-1[8:1],,,5,{8}5,3,1x/2x,{16}3,4,
{8}3,{16}6,5,6,,,8,{8}1/7,2,3/5,{16}6,4,
{2}5bw1[8:1],4bw8[8:1],
{1}2b<5[2:1]/7b>4[2:1],
A7/E7/B6/B3/E3/A2/Cfh[1:2],
{4},,,,8b-4[8:1],
8/3b<6[8:1],3b/7b-4[8:1],{8}7b,{16}3,3,
{8}5b,{16}2,2,{8}1b,{16}4,4,{8}7b,{16}6,6,{4}1b<6b[8:1]*>4b[8:1],
1b,{8}2bx/7bx,4bx/6bx,{16}3bxh[8:1]/5bxh[8:1],,,3bxh[8:1]/4bxh[8:1],,,{8}3bxh[8:1]/4bxh[8:1],
,4bx/5bx,7bx/2bx,5bx/3bx,{16}6bxh[8:1]/4bxh[8:1],,,6bxh[8:1]/5bxh[8:1],,,{8}6bx/5bx,
{4}7bx/8bx,{8}1bx/8bx,1bx/2bx,{16}3bxh[8:1]/8bxh[8:1],,,4bxh[8:1]/7bxh[8:1],,,{8}5bxh[8:1]/6bxh[8:1],
,,,,,,{4}1>7[2:1],
1,7<1[2:1],8h[8:1],7x-5v4-2[2:1],
7,Ch[4:1],{8},,1,8,
{4}7/B2/B3/E3,{8}5,4,{4}3/B6/E7/B7,5-1[8:1]/4x>1[8:1],
5x<8[8:1]/4-8[8:1],5/4x,{8},,8,7,
{4}6-8-5[4:1],5V31[4:1],{8}1>8[8:3],,,8xp1[4:1],
,2xv3-5[8:3],,,8xh[8:3],,,6xh[2:1],
,,{4}4xw8[8:7],,,,,,6h[8:1]/2h[8:1],
7h[8:1]/1bs5[2:1],6h[8:1],7h[8:1],6h[8:1],
7h[8:1]/B5/B4/E5,6x/Cf,{8},,3/5<2<5[4:3],3,
{4}3h[8:1],4h[8:1],5pp5qq5b[2:1],4h[8:1],
3h[8:1],2x,{8},,4/7-5[8:1],7,
{4}7/4V28[4:1],8V64[4:1],{2}4qq2[8:1],
{4}8x-4[8:1]/1x-5[8:1],8/1,{2}8x-5q1p4b[2:1]/1x>1[4:5],
{16},,,,,,,,,,,,,,,,6,
5,{8}4,{16}6,5,{8}4,{16}6,5,4,3,2,1,8,7,
{4}6bx/2bh[2:1],{8}4-8[8:1],5,{4}4,{8}7x/1,7x/1,
{4}2/6h[2:1],{8}2-5[8:1],1,{4}2,{8}4x-8[8:1]/6<8[8:1],6/4x,
{4}4x>2[8:1]/6-2[8:1],6<7-1b[8:1]/4v1b[8:1],4b/6b,{8}8x/2xpp4[8:1],3,
2/7,6,5x/3-7b[8:1],{16}2,4,{8}3/5v8[8:1]*v2[8:1],6,{4}5b,
3bx/7bh[2:1],{8}5-1[8:1],4,{4}5,{8}2x/8,2x/8,
{4}7/3h[2:1],{8}7-4[8:1],8,{4}7,{8}5x-1[8:1]/3>1[8:1],3/5x,
{4}5x<7[8:1]/3-7[8:1],3v8b[8:1]/5v8b[8:1],5b/3b,{8}1x/7x-3[8:1],6,
7/1s5[8:1]*s5[8:1],2,1/6-8-4-2b[16:5],7,{4}6b,1h[4:1],
7h[4:1],{8}4,3,6/2,{16}7,8,{8}7,1/7h[8:1],
{16},,8,7,{8}8,{16}1,8,{8}1h[8:1],7h[8:1],3h[8:1],5h[8:1],
{4}4h[4:1],{8}6,{16}2,1,{8}2,3/7,5/4,7/8h[8:1],
,7,{16}1,6,2,7,3,5,4,6,{8}5/3,3/5,
2/7h[4:1],2,3,{16}3/7,2,{8}6/1h[4:1],6,5,{16}5,6,
{8}2/7h[4:1],2,1,{16}1,2,{8}7/3h[4:1],7,8,{16}8,7,
6/1,2,3,4,5/8,7,6,5,{32}1/4,2,3,4,5,6,7,8,1w5[1.3953##0.1744],2,3,4,5,6,7,8,
{4}1xh[2:1],,,1b/Cf,
{8}7b-3b[8:1],5,3,1-5[8:1],7-3[8:1],1>7[4:1],,,,,8-5[8:1],
2/6,8b-3[8:1],2,8w4[8:1],6,
{4}8b,{8}8-4[4:1],3-6[8:1],8-3[8:1],3<1[4:1],,,,,8x/2x,
{16}6,4,{8}7/2-6[8:1],3/8,5-8[8:1],3,
{4}1-6[8:1]*-4[8:1],1b,{8}6x/3-7[8:1],4/7-1[8:1],{4}5h[4:1],
{8},,1-4[8:1],7/3,1b-6[8:1],7,1w5[8:1],3,
{4}1b,{8}8h[16:1]/7h[16:1],7h[16:1]/8h[16:1],6bxh[16:1]/2bxh[16:1],{16}4bx,5bx,{8}4bx,6bxh[8:1]/3bxh[8:1],
{32},,,,,,,,2bx/8bxh[8:1],3x,4x,5x,,,,,7bx/1bxh[8:1],6x,5x,4x,,,,,{8}4bx/8bxw4b[8:1],6/2,
{32}8b,B8,Cf,B4,,,,,{8}7/1p4[8:1],6,{16}7/1b,6,{8}5,{16}2-7-5b[16:3],4,3,5v3[8:1],
{4}2,{8}4-8b[8:1],4,2-6b[8:1],2,{4}7-4[8:1]*-3[8:1],
7b,{8}2/8q5[8:1],3,{16}2/8b,3,{8}4,{16}7-3b[8:1],5,6,4,
{8}7b-5b[8:1],4-8[8:1],7-3b[8:1],4,7b-5b[8:1],1,7/2-4[8:1]*-6[8:1],3,
{4}2b,{8}2/8q5[8:1],3,{16}2/8b,3,{8}4,{16}7-2-4b[16:3],5,6,4v6[8:1],
{4}7,{8}5-1b[8:1],5,7-3b[8:1],7,{4}2-5[8:1]*-6[8:1],
2b,{8}4b/8b,8b/4b,{32}7b/3qq4b[16:3],6,{16}5,2,4V68[4:1],{8}3/5,5bh[4:1],
{32},,,,,,,,1x-5[32:3],2,3,4/5-3v6[16:3],6,7,8,1,{4}3h[8:1],2h[8:1],
{8}8bx<6[8:1],4,8bx>2b[8:1],4,{4}8,{16}4/8,3/7,2/6,1/5,
{8}8bx>1-3[8:1],4,8bx<7-5b[8:1],4,{4}8bx,{8}6,1,
7/1>8[2:1],{16}2,8,{8}1,5,{2}6bxh[4:1],
{24}1b/8b,2,3,4bx/5bx,6,7,{8}1bx>4[8:1]/8bx<5[8:1],2/7,{4}1bx-5[8:1]/8bx-4[8:1],8bx/1bx,
{8}1bx>3[8:1],5,1bx<7b[8:1],5,{4}1,{16}5/1,6/2,7/3,8/4,
{8}1bx<8-6[8:1],5,1bx>2-4b[0.3488##0.1744],5,1bx,,3,8,
2/8<1[2:1],{16}7,1,{8}8,4,{2}3bxh[4:1],
{16}2b,6,1b,7,8b,8,8b,8,{4}8bw4[8:1],8b,
7b/2b,{8}1/7v4[8:1],8,7/2>2[8:3],{16}1,6,{8}2,7h[4:1],
{32},,,,,,,,1b,8,7,6,5,4,,,8b,1,2,3,4,5,,,1b,8,7,6,5,4,3,2,
{4}8b/1b,{8}1b>4[8:1],2,{24}1b/8b,7,6,5,{48},,,,{16}3b,4,{8}3h[16:1],
1b>5[8:1],8,{32}1b,,,,,6,7,8,{4}1b-5[8:1],{32}1,B1,C,B5,{8}A5,
{4}2b/7b,{8}8b/2bv5[8:1],1,2/7<7[8:3],{16}8,3,{8}7,2h[4:1],
{16},,,,2-6[8:1],5,3,4,{4}2bV86[8:1]*V46[8:1],2b,
1/8,{8}4>1[8:1],8,{32}4,8,7,6,5,8,7,6,{8}5b/8b,8b,
{16}2x,7x,1x,8x,2x,7x,1x,8x,{32}2,3,4,5,6,7,8,1,2/6,3/7,4/8,5/1,{8}2h[8:1]/6h[8:1],
{48},1/5,8/4,7/3,6/2,5/1,4/8,7/3,{6}2p7b[32:65]/6p3b[32:65],,,,,,,,,,,,,,,,,{2}2>2[4:7],
5<8v3[4:5],
{16},,,,,,,,,,,,,,,,,,,6>7[2:3],
,,,,,,,3>1v6[1:1],{1},{4},,{8},2p8<2s6[8:27],
,,,6p4b[8:7],
,,,,,,,,,,,,,8-4b[8:7],
E
