&title=BLACK GOLD
&artist=Cranky
&first=-0.005
&des=GOLD RUSHER
&lv_5=14
&lv_7=蔵
&inote_5=(155)
{1},
{8}3,,3,,{16}3h[16:3],,,4h[16:3],,,5,,
{16}6h[16:3],,,5h[16:3],,,4-8[1:1],,{4},,,1,,,,,,,
{8}3,,3,,{16}3h[16:3],,,4h[16:3],,,5,,
{16}6h[16:3],,,5h[16:3],,,4-8[1:1],,{4},,,1,,,,,,,
{8}6/2,,7-4[8:1],,{16}7,,,8,,,1,,
{16}2,,,5,3-8[8:1],,6,,{4}3,{8}6/1^4[8:1],1,
{8}5^8[8:1],,5,,{16}2,,,3,,,4,,
{4}4h[4:1],{16}5,,,6/5,,,3/4,,7/2,,8/1,,
{8}3/7,,2-5[8:1],,{16}2,,,1,,,8,,
{16}7,,,4,6-1[8:1],,3,,{4}6,{8}3/8^5[8:1],8,
{16}4^1[8:1],,,4,5,,6,,{16}7^4[8:1],,,7,8,,1,,
{8}1h[8:1],7,8h[8:1],2,{16}4,6,2,8,{4}1b,
{8}1-5[8:1],8,{16}1/8,,7,7,,3,4,3,{8}4,2/5,
{8}8-4[8:1],1,{16}8/1,,2,2,,6,5,6,{8}5,7/4,
{16}1,8,1,8,3,6,3,6,2,4,2,4,1,7,1,7,2,1/2,,7,8/7,,3,2/4,,6,5/7,,1b,,,,
{8}1-5[8:1]/8,2/7,{16}1/8,,6,6,,3,4,2,{8}5,3/4,
{8}8-4[8:1]/1,7/2,{16}8/1,,3,3,,6,5,7,{8}4,6/5,
{16}2,4,3,4,1,6,5,6,2,4,3,4,1,5,4,5,4,6,3,7,2,6,1,5,
{16}4/8,,,3/6,,,1/8,,
{16}2/7,,,,3/5,,7/1,,,,1/2,8/3,7/4,,8/1,7/2,
{16}6/3,,8/7,1/6,2/5,,8/1,8/1,7/2-5[8:1],,,,8,,,,
{16}6,5,6,,3,4,3,,7,5,7,,2,4,2,,
{16}8,6,8,,1,3,1,,7h[16:3]/8,,,5h[16:3],,,4,,
{16}2,4,2,,7,5,7,,3h[16:3]/4,,,1h[16:3],,,8,,
{16}6,8,6,,3,1,3,,2,4,3,,7,5,6,,
{16}1,3,2,,8,6,7,,2,1,4,,7,8,5,,
{16}3,4,2,,6,5,7,,3,4,1,,6,5,8,,
{16}2,5,4,,7-3[8:1],4,5,,7/1-5[8:1],,,,1/4-8[8:1],,,,
{16}4/6-2[8:1],,,,6/8-4[8:1],,,,1-5[8:1]/8,,,,1,,,,
{16}6,6,5,,4,3,2,,8,1,8,,7,6,5,,
{16}2,2,3,,4,5,6,,8h[16:3],,,6h[16:3],,,1,,
{16}4,5,4,,6,7,8,,2h[16:3],,,3h[16:3],,,1,,
{16}8h[16:3],,,6h[16:3],,,7,,1,2,3,,7,6,5,,
{16}2,2,3,,4,5,6,,1,8,1,,2,3,4,,
{16}7,7,6,,5,4,3,,8,1,8,,2,3,4,,
{16}7,7,6,,5,4,3,,1,2,1,,8,7,6,,
{4}1-4[8:1],1-6[8:1],1-5[8:1],1,
{16}6,,6/5,,4,5,,6/3,,2,,2,7,,7,,
{16}3,,3/4,,5,4,,3/6,,7,,7,2,,2,,
{16}6,,6/5,,4,5,,6/3,,1,,1,8^5[8:1],,8,,
{16}4^1[8:1],,,,4-8[8:1],,,,1-5[8:1],,,,7b,,,,
{16}6,,7/5,,4,5,,2/3,,2,,8,1,,7,,
{16}3,,2/4,,5,4,,7/6,,7,,1,8,,2,,
{16}6,,7/5,,4,4,,2/3,,,8-4[8:1],,2-6[8:1],,8,,
{16}2,,,,4-8[8:1],,,,2,2,,,7b/1b,,,,
{8}2-5[8:1]/7,1,2/7-4[8:1],8,7/2,{16},2,2-6[8:1],,4/3,,
{8}2,{16},5,{8}5-1[8:1],4/3,5,,3-8[8:1],4,
{8}6-1[8:1]/3,5,6/2,3,{16}7/4,,6,5,6^1[8:1],,7/4,,
{8}6/2,,7/3,{16}4,5,{8}3/6,1/2,3/6,8/1,
{8}7-4[8:1]/2,8,7/2-5[8:1],1,2/7,{16},7,7-3[8:1],,5/6,,
{8}7,{16},4,{8}4-8[8:1],5/6,4,,6^1[8:1]/2^5[8:1],1/5,
{8}6/2,,7^4[8:1]/3^8[8:1],8/4,7/3,,2^5[8:1]/6,1/5,
{8}2b/6b,,3/7,,{32}3b/7,4,5,6,7,8,1,2,3/7b,,,,,,,,
{8}2-6[8:1]/8,5,2/8-4[8:1],1,8/2,{16}1,2,3-8[8:1]/5,,7/1,,
{8}3/4,{16}5,6,{8}7-4[8:1]/1,3/5,7/8,,2-5[8:1]/6,1,
{8}7^4[8:1]/2,8,7/1-5[8:1],3,{16}7/1,,8,7,6-1[8:1],,7/4,,
{8}6/2,,7/3,{16}4,5,{8}3/6,1/2,3/6,8/7,
{8}7-3[8:1]/1,4,7/1-5[8:1],8,1/7,{16}8,7,6-1[8:1]/4,,2/8,,
{8}6/5,{16}4,3,{8}2-5[8:1]/8,6/4,2/1,,7^4[8:1]/3,8/4,
{32}7/3,2,1,8,,,,,{8}6/2^5[8:1],5/1,{32}6/2,7,8,1,,,,,{8}3/7,2/6,
{8}3h[8:1]/4,7,6h[8:1]/5,2,5b/4b,6b/2b,8b/4b,6b/5b,
{8}1b/2b,,2-5[4:1],,6,7,8-5[4:1],,
{8}3,,3-6[4:1],,2,2,,,
{8}8/7,,7-4[4:1],,3,2,1-4[4:1],,
{8}6,,6,,{16}4,3,2,1,5,6,7,8,
{8}1/2b,,2^5[4:1],,6,7,8^5[4:1],,
{8}3,,3^8[4:1],,4,4,,,
{8}8/7,,7^4[4:1]/1,,3,2,1^4[4:1],6,
{8}5,,6^1[4:1],,5,5,,,
{8}3/7,,2,,{16}1,,,8,,,7,,
{16}6,,,4,5,,3,,{4}6,{16}2,,5,,
{8}4,,6,,{16}7,,,3,,,5,,
{4}5,{16}4,,,3,,,6,,2,,7,,
{8}6/2,,7h[4:1],,{16}8,,,1,,,2,,
{16}3,,,5,4h[4:1],,6,,{4}5,{8}7,6,
{16}5,,,5,3h[4:1],,4,,5,,,2,,,5,,
{8}6/4,2/1,4-1[8:1]/5,7/1,{8}4b,{16}6,6,8,8,4,4,
{8}2-6[8:1],6/5,2/8-4[8:1],7,1/8,{16}3,2,1-5[8:1]/8,,5/6,,
{8}1/2,{16}4,3,{8}2-5[8:1]/6-1[8:1],8/4,2/6,,3-8[8:1]/7,8/4,
{8}7-4[8:1]/3,5,7/1-5[8:1],3,{16}1/8,,7,7,6^3[8:1],,1/8,,
{8}6/2-6[8:1],2,1,{16}8,8,{8}1/7,3/5,5/6,8/2,
{8}7-3[8:1],3/4,7/1-5[8:1],2,8/1,{16}6,7,8-4[8:1]/1,,4/3,,
{8}8/7,{16}5,6,{8}7-4[8:1]/3-8[8:1],1/5,7/3,,7-4[8:1],3/5,
{16}7b/1,,8,1,2-5[8:1],,6/4,,2b/8,,6,7,8-4[8:1],,4/3,,
{8}1-5[8:1]/8b,3,7b/1b,6,3b/4b,5b/6b,2b/7b,4b/5b,
{8}1-5[8:1]/8b,3/5,{16}1/6,,7,7,,3,7,5,{8}1,3/7,
{8}8-4[8:1]/1,6/4,{16}8/3,,2,2,,6,2,4,{8}8,6/2,
{16}1b,7,7,5,1b,3,3,5,1b,7,7,5,1b,3,3,5,
{16}2,2/4,,7,7/5,,3,2/4,,6,7/5,,1b/8b,,,,
{8}8-4[8:1]/1,6/5,{16}8b/1,,3,3,4,2,6,4,{8}8b,6b/2b,
{8}1-5[8:1]/8,3/4,{16}1b/8,,6,6,5,7,3,5,{8}1b,3b/7b,
{16}8b,2,2,4,8b,6,6,4,8b,2,2,4,8b,6,6,4,
{16}7,5,6,2,4,3,8,1,2b/7b,,,5b/4b,,,1b/8b,,
{8}3b/6b,,{16}6/4,,2/8,,,,2/5,3/6,4/7,,1/8,2/7,3/6,,7/4,6/3,5/2,,1/8,1/8,2/7,,,,8-4[1:3],,,,1b,
&inote_7=(155)
{1},
{8}
3,,3,,{16}3h[16:3],,,4h[16:3],,,5,,6h[16:3],,,5h[16:3],,,4-8[1:1],,{4},,,1,,,,,,,
{8}
3,,3,,{16}3h[16:3],,,4h[16:3],,,5,,6h[16:3],,,5h[16:3],,,4-8[1:1],,{4},,,1,,,,,,,
{8}
6/2,,7-4[8:1],,{16}7,,,8,,,1,,2,,,5,3-8[8:1],,6,,{4}3,{8}8-5[8:1]/2,,
5-1[8:1],,1^6[8:1],,{16}2,,,3,,,4,,{4}4h[4:1],{16}5,,,6/5,,,3/4,,7/2,,8/1,,
{8}
3/7,,2-5[8:1],,{16}2,,,1,,,8,,7,,,4,6-1[8:1],,3,,{4}6,{8}1-4[8:1]/7,,
4-8[8:1],,8^3[8:1],,{16}7,,,6,,,5,,{8}5h[8:1],3,4h[8:1],6,{16}5,3,7,1,{4}8b,
{16}
8b/1-5[8:1],2,3,,4,,3,,3-7[8:1],,6,7,8,,,,
1/8-4[8:1],7,6,,5,,6,,6-2[8:1],,3,2,1,,,,
1,8,1,8,3,6,3,6,2,4,2,4,1,7,1,7,2,1/2,,7,8/7,,3,2/4,,6,5/7,,1b,,,,
1/8-4[8:1],7,6,,5b,,6,,6-2[8:1],,3,2,1b,,,,
8/1-5[8:1],2,3,,4b,,3,,3-7[8:1],,6,7,8b,,,,
1,1,6,6,5,5,8,8,2,2,4,4,3,3,7,7,5,6,5,6,2,1,2,1,
3/8,,,4/5,,,1/8,,2/7,,,,3/5,,7/1,,,,1/2,8/3,7/4,,8/1,7/2,6/3,,8/7,1/6,2/5,,8/1,8/1,7/2-5[8:1],,,,8,,,,
6b,5,6,,
3,4,3,,
7,5,7,,
2,4,2,,
3h[8:3]/4,5,6,,
8,7,6,,
5b/4,3,2,7b,
5,4,3/6b,,
7h[8:3]/8b,1,2,,
4,3,2,,
1b/8,7,6,3b,
1,8,7/2b,,
6h[8:3]/5b,4,3,,
1,2,3,,
6/4,7,8,,
5/7,4,3,,
2h[8:3]/1,8,7,,
5,6,7,,
2,3,4,,
1,8,7,,
5h[8:3]/4,3,2,,
8,1,2,,
5/3,6,7,,
2/8,3,4,,
1h[8:3]/5,4,3,,
2,3,4,,
1/8,2,3,,
8/7^4[8:1],1,2,,
7-3[8:1],8,1,,
8-5[8:1],1,2,,
1,2,3,,
3h[4:1],,,,
5,6,7,,
3,4,3,,
1,8,7,,
5,6,5,,
4/7h[8:1],3,2,,
1,8,1,,
8b/2,3,4,7b,
1,2,3/6b,,
4b/5,6,7,,
4,5,4,,
5b/3,2,1,6b,
4,3,2/7b,,
1b/7,6,5,2b,
8,7,6/3b,,
4b-1[8:1],,,,
8,,,,
7,7,8,,
6,5,4,,
2,2,3,,
1,8,7,,
4,4,5,,
3,2,1,,
7,7,6,,
5,4,3,,
8h[4:3]/1,2,3,,
5,4,3,,
2,3,4,,
6,5,4,,
1b/8b-5[8:1],,,,
8-3[8:1],,,,
8-4[8:1],,,,
8,,,,
{16}3,,3/4,,
5,4,,3/6,
,7,,7,
2,,2,,
{16}6,,6/5,,
4,5,,6/3,
,2,,2,
7,,7,,
{16}3,,3/4,,
5,4,,3/6,
,8,,8,
1^4[8:1],,1,,
{16}5^8[8:1],,,,
5-1[8:1],,,,
8-4[8:1],,,,
2b,,,,
{16}3,,2/4,,
5,5,,4/6,
,7,,1,
8,,2,,
{16}6,,7/5,,
4,4,,5/3,
,2,,8,
1,,7,,
{16}3,,2/4,,
5,5,,4/6,
,,2-6[8:1],,
7-3[8:1],,2,,
{16}7,,,,
5-1[8:1],,,,
7,7,,,
2b/8b,,,,
{8}
2/8,6/4-8[8:1],8^3[8:1]/3,7/4,6,{16}5,5h[16:3],{8}2,3,
5-8[8:1]/4,6,4-1[8:1]/5,3,4/5,,7-4[8:1],8,
2-5[8:1],1,7,7,
{16}6h[16:3],,,5,{8}6-1[8:1],7/4,2,,{16}4h[16:3],,,5,4,,3/4,,1h[8:1]/6,,8,,
{8}7/1,3/5-1[8:1],1^6[8:1]/6,2/5,3,{16}4,4h[16:3],{8}7,6,
4-1[8:1]/5,3,5-8[8:1]/4,6,5/4h[4:1],,1-5[8:1],8/4,3,2,1-5[8:1],2/6,7,8,1-5[8:1],2/7,
1b/8b,,6^1[8:1],,{32}2b/6b,3,4,5,{8},3b/7b,,
{8}7/1-5[8:1],3/5-1[8:1],1^4[8:1]/8,8,7,{16}6,6,{8}5-1[8:1],4,
4-8[8:1]/5,3,5-1[8:1]/4,6,4/5,3,2-6[8:1],3,
4-8[8:1],5,6,7,{16}7h[16:3],,8,8,{8}7-4[8:1],6/1,
7/3,2,{16}1/4,,1,3,1,,8/7,,6/5,,3/4,,
{8}2/8-4[8:1],6/4-8[8:1],8^5[8:1]/1,1,2,{16}3,3,{8}4-8[8:1],5,
5-1[8:1]/4,6,4-8[8:1]/5,3,5/4,6,2/6^1[8:1],1/5,
{32}2/6,3,4,5,{8},7/3^8[8:1],8/4,{32}7/3,6,5,4,{8},1/5,2,
3h[8:1]/4,7,6h[8:1]/5,2,5b/4b,6b/2b,8b/4b,6b/5b,
{8}1b/2b,,2-5[4:1],,6,7,8-5[4:1],,
3,,3-6[4:1],,2,2,,,
8/7,,7-4[4:1],,3,2,1-4[4:1],,
6,,6,,{16}4,3,2,1,5,6,7,8,
{8}1/2b,,2^5[4:1],,6,7,8^5[4:1],,
3,,3^8[4:1],,4,4,,,
8/7,,7^4[4:1]/1,,3,2,1^4[4:1],6,
5,,6^1[4:1],,5,5,,,
{8}3/7,,2,,{16}1,,,8,,,7,,
6,,,4,5,,3,,{4}6,{8}2,,
4,,8,,{16}7,,,3,,,5,,
{4}5,{16}4,,,3,,,6,,2,,7,,
{8}6/2,,7h[4:1],,{16}8,,,1,,,2,,
3,,,5,4h[4:1],,6,,{4}5,{8}7,,
5,,1,,{16}2,,,6,,,4,,
{8}3/5,7/8,5-8[8:1]/4,2/8,{8}5b,{16}3,3,1,1,5,5,
{8}7-4[8:1],4/3-8[8:1],7/1,3,{16}6h[8:1],,8,6,8-4[8:1],,4-8[8:1]/2,,
{8}8^3[8:1]/5,6,7,8,5/1h[4:1],3,2-6[8:1],3,
4-8[8:1]/2,5,4/1,2,{16}1-4[8:1]/7,,2,6,1-6[8:1],,8,,1/2,,
3,,{16}5,5,4,4,5,,3/4,,1h[8:1]/6,,4,,
{8}2-5[8:1],5/6-1[8:1],2/8,6,{16}3h[8:1],,1,3,1-5[8:1],,5-1[8:1]/7,,
{8}1^6[8:1]/4,3,2,1,4/8h[4:1],6,7-4[8:1],8/6,{16}7b,,8,1,2-5[8:1],,3/4,,2b/1,,6,7,8-4[8:1],,2/1,,
{8}1b-5[8:1]/8b,3,7b/1b,6,3b/4b,5b/6b,2b/7b,4b/5b,
{16}8b/1b-5[8:1],2,3,,1/4,,3,3,4-7[8:1],,2,3,4,,2,,
2/1-5[8:1],8,7,,1/6,,6,6,4-8[8:1],,6,5,4,,6,,
{24}8,1,2,{16}5,,{24}1,2,3,{16}5,,{24}6,7,8,{16}4,,{24}7,8,1,{16}4,,
{16}1,2/8,,4,3/5,,7,8/6,,5,4/6,,2b/8b,,,,
1/8-4[8:1],7,6,,8b/5,,6,6,5-2[8:1],,7,6,5b,,7,,
7/8-4[8:1],1,2,,8b/3,,3,3,5-1[8:1],,3,4,5b,,3,,
{24}1,8,7,{16}4,,{24}8,7,6,{16}4,,{24}3,2,1,{16}5,,{24}2,1,8,{16}5,,
{16}1,7,3,5,2,6,8,4,{32}1,2,3,4,,,1,8,7,6,,,1b,,,,
{8}1b,,{16}6/4,,2/8,,,,8/7,1/6,2/5,,1/8,2/7,3/6,,1/2,8/3,7/4,,1/8,1/8,2/7,,,,8-4[1:3],,,,1b,
