&title=39
&artist=sasakure.UK X DECO*27
&first=0
&des_5=chrt
&lv_5=13.3
&des=chrt
&inote_5=(175){8},,,,,,,,3h[8:2],,,3,,,8h[8:2],,,8,,,1h[8:2],,,1>4[8:2]/8,7,6,5,6,6h[8:2],,,6,,,3h[8:2],,,3,,,1h[8:2]/2h[8:2],,,1-6[8:2]/2-5[8:2],,,,,7,7,7,7b-2[8:2],,,3,3,3,3b-6[8:1],,,1,1,1q8[8:1],1h[8:2],,,,,3,3,4,3,,,1,1,2,1,,,8,8,7,8b<5[8:2]/1b,2,3,4,4h[8:2],,,,,3h[8:2],,,6,4,5,,3,,3,,3,,3-1[8:2],3-8[8:1],,,,,7,5,3,,1,,1-5[8:3],,5,,5w1[8:2],,,,,,1,7,3,,6h[16:1],,5h[16:1],,4h[16:1],,3h[16:1],3,,2h[8:3]/1<7[8:2],,,,,6h[8:3]/5>3[8:2],,,,,6b,,,,,4h[8:1],,4h[8:1],,4-8[8:2],,4,,6,,7/3-7[8:2],2/6-2[8:1],,,,,6,3,5>1[8:2],,1<5[8:2],,5>1[8:2],,1<5[8:2],,5b,,,,,6<2[8:2],6,2v4[8:1],,,3,,3z7[8:3],,36,,5,6,,6h[8:4],,,,7,8h[8:4],,6,6,7,7,8,8,1b,1h[8:4],,,,2h[8:4],,,,3h[8:4],,,,4h[8:4],,,,5h[8:4],,,,6h[8:4],,,,7h[8:2],,,7,76,56,5b<8[8:2]/6,54,54,4,3,2,1b>4[8:2]/8b,18,17,6,5,45,53,52,5h[8:1]/1h[8:1],,,,{16}15,62,73,8h[8:5]/4h[8:7],{8},,,,,8,8h[8:3],4,{8}4h[8:3],,,,1,2,1,2-5[8:1],1,2,1,,6,5,6,5v3[8:1],6,5,6,,4,3,4,3>8[8:1],4,3,4,,7,8,7,8-4[8:1],7,8,7,,5,4,5,4q2[8:1],5,4,5,,,8h[8:1]/1h[8:1],,2h[8:1]/3h[8:1],,5h[8:1]/4h[8:1],,7>2[8:4]/6>3[8:4],,,,,,,,1,5,2,6,3,7,4,8,,3bqq4[8:4],,3b,,,6b,5-8[8:2],,,3b,4-1[8:2],,,7b,8-4[8:2],,,2b,1-5[8:8],,,8,2,7,3,6,4,6,6,6,4,4,4,8,8,8,2,2,2h[8:2],,6h[8:2],,3h[8:2],,6,,5b/4b,,,,3,4,3,4v7[8:1],3,4,3,,8,7,8,7<5[8:1],8,7,8,,4,5,4,5-1[8:1],4,5,4,,2,1,2,1p4[8:1],2,1,2,,3,4,3,4v6[8:1],3,4,3,3h[8:2],,6h[8:2],,2h[8:2],,7h[8:2],,1b,,1,2,3,4,5,6,7,8,1,{16}2,3,4,5,6,7,8,1,,,3h[8:1],,1b,8,3h[8:1],,1b,8,3h[8:1],,1b,8,3h[8:1],,1b,8,3h[8:1],,1h[8:1],8b<3[8:4],,,1h[8:1],,,,1h[8:1],,,,1h[8:1],,,,2h[8:1],,4b,5,1h[8:1],,4b,5,2h[8:1],,4b,5,1h[8:1],,4b,5,2h[8:1],,4b,5,1h[8:1],,4b,5,2h[8:1],,4b,5,3h[8:1],,4bpp3[8:12],5b-8[16:23],{8},,,,,,,,,,,,,,,,3,3,3,3b,,,1,1,1,1b,,,8,8,8,8v1[8:1],,8b,3b,,6,5v2[8:1],6,5,,,1,8-4[8:1],1,8,,,3,4v7[8:1],3,4,,,6,7-1[8:1],6,7,,,5,1-6[8:1],4,1,,,4,8v2[8:1],5,8,,,3,1,8-5[8:1],5-8[8:1],,,,,7,6-3[8:1],7,6,,,2,3-8[8:1],2,3,,,1,8-5[8:1],1,8,,,4,5,4,{16}3,2,1,8,7,,{8}6h[8:3],,,,6,,3h[8:3],,,,3,,8h[8:3],,,,8/1>4[8:2],7,6,5,5h[8:3],,,,5,,4h[8:3],,,,4,,6h[8:3],,,,6,,3h[8:3],,6,6,3,6,7h[8:3],,,,7,,2h[8:3],,,,2,,1h[8:3],,,,1,8,1,8h[8:3],1,2,3,8/4,,4h[8:3],5,6,7,8/4,,8h[8:3],1,2,3,8/4,,4h[8:3],5,6,7,4/8,3b,1b,,E
