&title=Tropic Love
&artist=Diviners/Contacreast
&first=-1.51
&des=IcreApte-100
&lv_6=12+
&inote_6=(105){1},
{1},
{2}1h[4:30]/8,7,
{2}6,5,
{2}4,3,
{2}2,8,
{2}7,6,
{2}5,4,
{2}3,2,
{4}8,,7,1>5[4:1]/6,
{8}5<1[4:1],,1>4[32:7],,5,6,7qq4[2:1],,
{4}4,3,2,5<1[4:1],
{8}1>5[4:1],,5<8[32:7],,1,2,3qq8[2:1],,
{4}8,7,6,1V35[4:1]/5,
{8}5V71[4:1],,1V35[4:1],,5,6,7V14[2:1],,
{4}5,6,7,8V64[4:1],
{8}4V28[4:1],,8V64[4:1],,4,3,2V85[2:1],,
{4}4,3,2,5V71[4:1]/1,
{8}1V35[4:1],,5V71[4:1],,1,2,3V58[2:1],,
{4}1,2,3,4V28[4:1],
{8}8V64[4:1],,4V28[4:1],,8,7,6V41[2:1],,
{4}8,7,6,1bpp4[4:6]/5bpp8[4:6],
{1},
{8},,,,,,7h[4:1],4,
{16}3h[4:1],,6,,5,,,2/6,,,1>6[8:5]/7q4[8:3],,,,,,
{8},,,,,,7<4[16:3],3,
{16}2,,1,,1h[16:3],,,4h[16:3],,,2z6[4:1],,,,5,,
{8}5,,5-2[8:1]*-8[8:1],,,,1,2/8,
{16}3/7,,4/6,,5h[16:3],,,4h[16:3],,,3<1[16:7],,,,,,
{8},,,,,,8,1/7,2/6,3,5s1[16:3]/4z8[16:3],,,,,2,
{16}3/7,,6/4,,5w1[8:1],,,,,,,,7-3[8:1]/3-7[8:1],,1/5,,
{16}7/3,,,,6/2,,,1/5,,,8/4,,8pp3[8:3]/4pp7[8:3],,,,
{16},,,,,,,,,,7/4,,6,5,7h[8:1],,
{16}8,,1/6,,2h[16:3]/5,,,4h[16:3],,,5h[4:1],,,,6,,
{16}4/7,,3/8,,7/2h[16:3],,,4h[16:3],,,5>2[16:3],,,,,,
{16},,7,,6h[16:4]/2,,,1,,,8w4[8:1],,4w8[8:1],,,,
{16},,,,,,2,,2h[8:1]/5,,5,,3h[8:1]/5,,,,
{16}3h[8:1]/5,,5,,3h[8:1]/6,,,6,3h[8:1],,6,,4h[8:1],,7,,
{16}4h[8:1]/7,,8,,4h[8:1]/8,,,8,4h[8:1],,8,,8h[8:1],,4,,
{16}7h[8:1]/4,,4,,7h[8:1]/3,,,3,7h[2:1],,3>4[4:1],,,,,,
{16},,,,,,6,,6h[8:1]/1,,1,,7h[8:1]/1,,1,,
{16}7h[8:1]/2,,2,,7h[8:1]/2,,,2,7h[8:1],,2,,8h[8:1],,3,,
{16}8h[8:1]/3,,4,,8h[8:1]/4,,4,,8h[8:1],,4,,4h[8:1],,8,,
{16}3h[8:1]/8,,8,,3h[8:1]/7,,,7,3h[4:1],,7h[8:3],,,,,,
{32}4pp4[4:1]*qq4[4:1],3,2,1,8,7,6,5,4w8[8:1],,,,,,,,,,,,,,,,2b/6b,,,,4/3h[4:1],,,,
{16}1,,8,8-4[32:3]/3,,7,,1-5[16:1]/8-6[16:1],,2,,1/8,,,5/6h[4:1],,
{16}8,,1,6-8[32:3]/1,,7,,2-5[16:1]/6-4[16:1],,3,,2/6,,,8/7h[4:1],,
{16}5,,4,4-8[32:3]/7,,3,,6-1[16:1]/4-2[16:1],,7,,6/4,,,1/2h[4:1],,
{16}4,,5,2-4[32:3]/5,,3,,2-8[16:1]/6-1[16:1],,7,,2/6,,,4/3h[4:1],,
{16}1,,8,7-3[32:3]/3,,6,,7<5[16:1]/1>4[16:1],,2,,1/7,,,4/6h[4:1],,
{16}8,,1,2-6[32:3]/6,,3,,2>4[16:1]/8<5[16:1],,7,,2/8,,,8/7h[4:1],,
{16}5,,4,3-7[32:3]/7,,2,,3>1[16:1]/5<8[16:1],,6,,5/3,,,8/2h[4:1],,
{16}4,,5,6/1,,7,,3/8,,2,1,2,1bqq6[2:1],,,,
{4}3h[4:1],,3h[4:1],5pp1[2:1],
{4}4h[4:1],,4h[4:1],7qq4[2:1],
{4}2h[4:1],,2h[4:1],3pp7[2:1],
{4}1h[4:1],,1h[4:1],6,
{4}1<6[32:3]/5h[8:1],1>4[32:3]/5h[8:1],1/5h[8:1],7,
{4}8>3[32:3]/4h[8:1],8<5[32:3]/4h[8:1],8/4h[8:1],2,
{4}1-6[32:3]/5h[8:1],1-4[32:3]/5h[8:1],1/5h[8:1],7,
{16}8/3,,2,1,,2/8,,3/7,,4h[16:3]/6h[16:7],,,,,,4h[16:3],
{16},,7h[16:6],,3,,3h[4:1],,,7,,,2h[4:1]/8h[4:1],,,,
{16},,3h[8:1],,7h[8:1],,2h[8:1],,6h[8:1],,1,,5/3h[16:5],,,5h[16:3],
{16},,2h[16:6],,6,,6h[4:1],,,2,,,7/1,,2/6,,
{16}3/5,,4,,7h[16:3],,,3h[16:3],,,5bpp5[4:5]*qq5[4:5],,,,,,
{1},
{1},
E
