&title=命の灯火
&artist=古贺英里奈
&first=0.39
&des=Everyone is here!
&lv_5=13+
&inote_5=(132)
{1},
{1},
{1},
{1}4<2[4:3],
{1}5<3[4:3],
{1}6<4[4:3],
{1}7p2^3p6^7b[4:3],
{1}4>6[4:3],
{1}5pp1[2:1],
{8}2-6[4:1]/8h[4:1],,,4h[4:1],,8,1/7,2,
{16}3h[8:3]/1,,,8,,,7,,6h[8:3]/2,,,3,,,4,,
{1}5b-8[2:3]/6b-3[2:3],
{1},
{16}2h[8:3]/1,,,,3,,4,,5h[8:3]/3,,,,7,,8,,
{8}1b/5b-7[8:1],,,8b-4[8:1]*-3[8:1],,,E4f,,
{16}2h[4:1]/5,,,,4h[4:1],,,,5h[4:1],,,,7,,4,5,
{16}3q5[4:1],,,5,,,6,,6-1[8:1]*-2[8:1],,,,,,,,
{8}3-8[8:1]/8,,4h[4:1],,{16}1-6[8:1],,,7,,,8,,
{8}8p4[8:1]*q4[8:1],,,,3-8[8:1]/5-1[8:1],,,,
{16}6h[4:1]/8,,,,5h[4:1],,,,4h[4:1],,,,3,,2,4,
{16}3^6[8:1],,,6,,,7,,8-4[8:1]/5,,,4,,,3,,
{8}2>6[4:1],5,6,7,8qq4[4:1],5,4,3,
{4}3^5[32:3],6,6xq3b[32:5]*<3b[32:5],A6/E7f/A7,
{16}4h[4:1]/1,,,,2h[4:1],,,,8h[4:1],,,,6,,7,8,
{16}6pp5[4:1],,,5,,,4,,3-6b[8:1],,,,3/6,,,,
{16}7v4[8:1]/5,,,,1h[4:1],,,,5-8[8:1],,,4,,,3,,
{4}2-5[8:1]*-6[8:1],2,7^4[8:1]*p3[8:1],{32}E7,E6,E5,E4,,,,,
{16}2/1h[4:1],,,,7h[4:1],,,,5h[4:1],,,,3,,2,1,
{16}3^8[8:1],,,4,,,5,,6q2[8:1]/1,,,2,,,3,,
{8}4-8V25[4:1],1,8,7,6qq3[4:1],4,3,2,
{4}1^4[8:1]*q5[8:1],1^6[8:1]*p5[8:1],1V35[16:3],1,
{16}7h[16:3],,,6h[16:3],,,5h[8:1],,4<2[4:1],,,,,,,,
{16}7h[16:3],,,8h[16:3],,,1h[8:1],,2pp6[4:1],,,,,,,,
{16}8^3[8:1],,,7,,,6,,5q1[8:1]/3,,,1,,,2,,
{16}3^6[8:1],,,,7V51[4:1]/3,,,,,,4,,3,,2,,
{16}1/7p2[32:5],,,,2,,1,1,8x^5[8:1],,,,5/8,,4v7[8:1],,
{16},,4/2,,1,1,8xp4[8:1],,,,8/4,,3,,2,,
{16}1^6[4:1],,,,6^3[4:1],,,,3,,2,,{24}1,8,7,6,5,4,
{16}3/1bx-3[16:1],,,1/5bx-7[16:1],,,4bx-8[16:1]/5,,,7bx-4[16:1]/4,,,7bx/1x,,1x,,
{16}2qq2[4:1]/8,,,2,2>6[4:1]/5,,6,,,,7,,8,,1/5,,
{16}3/7-3[8:1],,,2,2,,1,,8-4[8:1]/4-7[8:1],,,,,,,,
{16}7pp7[4:1]/1,,,7,7<3[4:1]/4,,3,,,,2,,1,,8/4,,
{16}2-6[8:1]/6,,,7,7,,8,,1-6[8:1]/4-7[8:1],,2/3,,,,,,
{16}3pp3[4:1]/5,,,3,3>7[4:1]/8,,7,,,,6,,5,,4/8,,
{16}2/6-2[8:1],,,3,3,,4,,5^2[8:1]/1^6[8:1],,,,,,,,
{16}6qq6[4:1]/4,,,6,6<2[4:1]/1,,2,,,,3,,4,,5/1,,
{16}3-6[8:1]/7,,4,5,3,,7,,8/5,,1/2,,3,4,2,5,
{16}3V14[4:1]/4,,,3,3/4V26[4:1],,5,,,,6,,7,,8/5,,
{16}2-5[8:1]/1,,4,4,2,,6,,7v5[8:1]/3v1[8:1],,,,,,,,
{16}6V84[4:1]/4,,,6,6/4V61[4:1],,3,,,,3,,2,,7/8,,
{16}6-2[8:1]/4,,8,8,6,,1,,4p7b[8:1]/3q8b[8:1],,2/6,,,,,,
{16}6V85[4:1]/5,,,6,6/5V73[4:1],,4,,,,3,,2,,1/4,,
{16}7v4[8:1]/8,,5,5,7,,3,,2-5[8:1]/1-5[8:1],,,,,,,,
{16}3V58[4:1]/5,,,3,3/8V26[4:1],,7,,,,6,,5,,7/8,,
{16}1^6[8:1]/2,,3,3,,4,4,,5-1[8:1]/4,,6,6,,7,7,,
{1}8bqq5[2:1]/2bq5[2:1],
{16}6^3[8:1]/3,,,,1,,1-4[8:1],,,,4,,5,,7/6,,
{16}8-4[8:1]/2,,,,8/6,,7^2[8:1],,,,2,,3,,4/1,,
{16}8h[8:1]/3h[8:1],,,,2h[8:1]/7h[8:1],,,,1/6,,1/6,,{24}8/5,7,6,5,4,3,
{16}2V48[16:3]/6,,1,8-3-5[16:3],2x,,5,,6,,7,,8,,1/5,,
{16}3-6[8:1]/7,,4,5,3,7,7h[8:1],,5-1[8:1],,2-4[32:3],,5,,2,,
{16}7V51[16:3],,8,1-6-4[16:3],7x,,4,,3,,2,,1,,8/4,,
{16}6-1[8:1]/2,,5,4,6,3,3h[8:1],,8^5b[8:1],,4/5,,{24}1/8,2,3,4,,,
{16}3V58[16:3]/5,,1,8V26[16:3],3x,,7,,6,,5,,4,,3/1,,
{16}5/7-3[8:1],,8,1,7,2,2h[8:1],,4-8[8:1],,1-3[32:3],,4,,1,,
{16}6V41[16:3],,8,1V73[16:3],6x,,2,,3,,4,,5,,6/8,,
{16}2b-5[8:1]/4,,1,1,2,8,8,,7b^2[8:1]/5,,4,4,7,3,3,,
{4}1bqq6<4[4:7]/2bq5<4[4:7],,,,
{1},
{32},,,,,,,,,5b-8b[2:3]/6b-3b[2:3],,,,,,,,,,,,,,,,,,,,,,,
