&title=少女A
&artist=椎名もた feat.鏡音リン
&first=0
&des=Eyl
&lv_5=13
&inote_1=(130)6-1[32:3],5,,5,6,,2-5[32:3],1,,1,2,,,,
&inote_5=(130){1},{384},,,,,,,,,,,,,,,,,
{16}3,4,3,4,,2/5,2h[8:4]/5h[8:4],,,,,,,,,,
{16}6,5,6,5,,74,7h[8:4]/4h[8:4],,,,,,,,,,
{8}4>5[8:4],,,,,,,,7-3[8:2],,,,1-6[8:1]*-4[8:1],,,,
{8}6/5,7,5/3,2,6/4,{16}7,7h[16:3],,,,,
{8}6/4,2,3/5,7,4/6,{16}2,2h[16:3],,,,,
{8}6/5,7,3/4,2,6/4,{16}5,5h[16:3],,,,,
{8}6/4,2,3/5,7,4/6,{16}2,2h[16:3],,,,,
{8}3/6,7,6/3,2,6/4,{16}7,7h[16:3],,,,,
{8}6/3,2,3/6,7,3/5,{16}2,2h[16:3],,,,,
{8}6/4,7,3/6,2,3/5,{16}4,4h[16:3],,,,,
{8}6/3,2,3/6,7,3/5,{16}2,2h[16:3],,,,,
{16}2^7[8:1],4,3,5h[16:13],,,,,,,,,,,,,
{16}3^8[8:1],5,4,6h[16:13],,,,,,,,,,,,,
{16}4^1[8:1],6,5,7h[16:9],,,,,,,,,,,,,
{16}6^1[8:1],4,5,3,,,,,2^7[8:1],4,3,5,,,,,
{16}7^2[8:1],5,6,4h[16:13],,,,,,,,,,,,,
{16}6^1[8:1],4,5,3h[16:13],,,,,,,,,,,,,
{16}5^8[8:1],3,4,2h[16:9],,,,,,,,,,,,,
{16}3^8[8:1],5,4,6,,,,,7^2[8:1],5,6,4,,,,,
{16}3,8,2h[16:10],7-3[8:1],,,,,C,,,,,,,,
{16}2,8,1h[16:10],7-4[8:1],,,,,B5,,,,,,,,
{16}1,7,8h[16:10],6-4[16:2],,,,,B5,,,,,,,,
{16}7v2[8:1],1,8,2,,,,,3v6[8:1],1,2,8,,,,,
{16}7,5,6h[16:10],4-8[8:1],,,,,C,,,,,,,,
{16}6,4,5h[16:10],3-8[8:1],,,,,B1,,,,,,,,
{16}5,3,4h[16:10],2-8[16:2],,,,,B1,,,,,,,,
{16}3v6[8:1],5,4,6,,,,,7v2[8:1],5,6,4,,,,,
3pp8[8:6],,,,8,,,,7,,,,6,,,,5<4[8:6],,,,1,,,,2,,,,3,,,,
1^4[8:2],,,,4^7[8:2],,,,7^2[8:2],,,,2^5[8:2],,,,6^1[8:1],,,,,,,,8^6[8:1]/4^2[8:1],,,,,,,,5-8[16:2]/1-4[16:2],,,,,,,,
7^5[8:1]/3^1[8:1],,,,,,,,4-7[16:2]/8-3[16:2],,,,,,,,
7-3[4:1],,,,3^8[8:2],,,,8^5[8:2],,,,5^2[8:2],,,,2^7[8:2],,,,
7,,,,2-4[8:1],,,,1-5[8:1],,,,8-6[8:1],,,,{64}A5f,A4,A3,,,,,,,,,,,,,,
{16}
8qq8[16:3],,7,,4,,2,,1q3[16:4],,2,,5,,6,,
7p5[4:1],,8,,4,,3,,4qq4[16:3],,3,,5,,6,,
5p3[16:4],,6,,1,,3,,2qq3[32:7],,1,,8,,7,,
6q8[4:1],,5,,1,,2,,1pp8[32:7],,2,,8,,7,,
6x-8[32:3],5,,5x,6,,2x-4[32:3],1,,1x,2,,6x,5,,,
6x-8[32:3],5,,5x,6,,2x-4[32:3],1,,1x,2,,6x,5,,,
6x-1[32:3],5,,5x,6,,2x-5[32:3],1,,1x,2,,,,
3x-8[8:1],,7,,7,,6pp1[32:11],,5,,5,,4,,3/Cf,,2,,
{16}4qq4[16:3],,3,,8,,6,,5q7[16:4],,6,,1,,2,,
3p1[4:1],,4,,8,,7,,8qq8[16:3],,7,,1,,2,,
1p7[16:4],,2,,5,,7,,6qq7[32:7],,5,,4,,3,,
2q4[4:1],,1,,5,,6,,5pp4[32:7],,6,,4,,3,,
2x-4[32:3],1,,1x,2,,6x-8[32:3],5,,5x,6,,2x,1,,,
2x-4[32:3],1,,1x,2,,6x-8[32:3],5,,5x,6,,2x,1,,,
2x-5[32:3],1,,1x,2,,6x-1[32:3],5,,5x,6,,,,
3-8[8:1],,7,,6,,5pp8[8:3],,4,,4,,3,,2,,1xs5[8:6],,,,,,,,,,,,,,,,,,6h[8:26],,,,,,,,,,,,,,,,
,,,,,,,,,,,,,,,,
,,,,,,,,,,,,,,,,
B3,,,,E4,,,,
B5,B4,B3,B7,B2,B5,B4,B3,
8x-6[32:3],8,,4x-2[32:3],4,,5x-7[32:3],5,,1x-3[32:3],1,,8x,8,,,
4x-2[32:3],4,,8x-6[32:3],8,,1x-3[32:3],1,,5x-7[32:3],5,,4x,4,,,
8x-6[32:3],8,,4x-2[32:3],4,,5x-7[32:3],5,,1x-3[32:3],1,,,,,,
4x-8-3-1[8:4],,8,,7,,7,,6,,6,,5,,5,,
3x,4,3,4,3,4,3,4,2x,5,2,5,3x,4,3,4,
2x,6,2,6,2,6,2,6,3x,5,3,5,2x,7,2,7,4x,6,4,6,
4,6,4,6,2x,5,2,5,3x,6,3,6,2x,7,2,7,4x,6,4,6,
3x,5,3,5,4x,6,4,6,4x,4,5,3x,3,6,4x,4,5,3x,3,6,4x,4,7,3,
6x,6,3,5x,5,4,6x,6,3,5x,5,4,6x,6,2,5,3x,3,6,4x,4,5,3x,3,6,4x,4,5,3,4,3,4,
2x,5,2,5,3x,6,3,6,4x,7,4,7,5x,6,5,6,5xp8[8:1],,,,6,,,,5q1[8:1],,,,4,,,,
3^8[8:1],,,,5,,,,7^4[8:1],,,,2,,,,3p5[32:5],,,,7,,,,8p1[32:5],,,,4,,,,
2pp1[16:5],,1,,8,,7,,6,,,,{64}E8,B7,B6,B5,E5,,,,,,,,,,,,
{16}
3h[8:2],,,,5h[8:2],,,,4h[8:1],,6,6h[16:3],,,3h[8:2],,,,5h[8:1],,4h[8:1],,6h[8:1],,5h[8:1],,7h[8:1],,2h[8:1],,6h[8:1],,
3h[8:1],,6pp4[8:3],,,,2,,3,,3,,,,2h[8:2],,,,8h[8:1],,1h[8:1],,7h[8:1],,2h[8:1],,8h[8:1],,3h[8:1],,6,,
6h[8:2],,,,4h[8:2],,,,5h[8:1],,3,3h[16:3],,,6h[8:2],,,,4h[8:1],,5h[8:1],,3h[8:1],,4h[8:1],,2h[8:1],,7h[8:1],,3h[8:1],,
6h[8:1],,3qq5[8:3],,,,7,,6,,6,,,,7h[8:2],,,,1h[8:1],,8h[8:1],,2h[8:1],,7h[8:1],,1h[8:1],,6h[8:1],,3h[8:1],,
5,,4,4h[16:37],,,7z3-8-5[8:16]b,,,,,,,,,,,,,,,,,,,,,,,,
