&title=クロートーと星の観測者
&artist=しーけー
&first=-0.06999999
&lv_5=14
&des_5=ToKo
&inote_5=
(230){4},E8/B7/E7,,,E3/B3/E4,
,,E6/B5/E5,
,,{2}E1/B1/E2,
{4},A7/E7/B7,,,A3/E3/B3,
,,A5/E5/B5,
,,{2}A1/E1/B1,
{4},7b/1b,6,5,
4/3,2,1,8/6,
5,4,3/1,8,
7,6/5,4,3,
2/1,8,7,6/4,
3,2,{8}1/7,7,6,6,
5,5,{4}4>8[4:3],,C,
{2}8<4[4:3],{4}C,4>8[4:3],
,C,{8}B7,B6,{4}B5,
,5<1[4:3],,,1>5[4:3],
,,5<1[4:3],
,,{2}1s5[8:3],
{4},2-5[8:1],6-1[8:1],3qq8[4:3],
,,,7-4[8:1],
3-8[8:1],6pp1[4:3],,,,3-8[8:1],
4-7[8:1],2pp5[4:3],
,,,6b-2[8:1],
{8},1b-5[8:1],,,7b-3[8:1],,,4b-8[8:1],
,,{4}7h[8:15],{8},6,,,5,
,,4,,,{4}3,
{8},2,6,4,5,3,5,3,
4,2,{4}4-7[8:1],{8},8-3[8:1],,,6-1[8:1],
,,2-5[8:1],,,{4}8<8[4:5],
,,,,,Ch[1:3],
{8},B1,B7,B2,
B6,,,B3,B4,B2,{4}B5,
{8},B7,B3,B5,{4}B1,{8}B8,B2,
B6,B4,,,6/4,4/6,,7/3,
,7/3,,2/8,{4}8/2,{8}5b/3b,5/3,
,1/8,,6/4,6/4,6/4,,8<5[8:1]/1>4[8:1],
,8b/1b,,,,,,,{4}7b-3[8:1],
1-6[8:1],5-2[8:1],1<6[4:1],
{8}6>3[4:1],,,8,{4}7b-3[8:1],4-1[8:1],
1<6[4:1],6>3[4:1],{8},,8,1,
{4}2-4[8:1],4,{8}5,6,{4}7-5[8:1],
{8}7,4-2[8:1],,4,{2}1w5[2:1],
{8},,,,7/1,1/7,2/8,2/8,
{4}3b-7[8:1],8-3[8:1],4-7[8:1],8>3[4:1],
{8}3<6[4:1],,,1,{4}2b-6[8:1],5-8[8:1],
8>3[4:1],3<6[4:1],{8},,1,8,
{4}7-5[8:1],5,{8}4,3,{4}2-4[8:1],
{8}2,5-7[8:1],,5,1,2,,7-4[8:1],
4,7,2-5[8:1],5,2,{16}8,7,{8}6,4,
{4}5b-1[8:1],5/4-2[8:1],4/8-4[8:1],8/7-5[8:1],
{8}7/3>7[2:1],,,7,{2}7<3[2:1],
{4}1-6[8:1],1-4[8:1],{8},,6,5,
{4}4b-8[8:1],4/5-7[8:1],{8}5/4-2[8:1],4,{4}5-1[8:1],
{8}5/6<2[2:1],6,,2,{4}2>6[2:1],C,
{1}6p4[8:5]*<4[8:5],
{4}6b/2b,{8}7-5[8:1],7,3-1[8:1],3,8,7,
6,{16}4,5,{8}4,3/7,6-4[8:1],6,2-8[8:1],2,
7,6,5/4,3,2,{16}8,1,{4}8<5[4:1],
5>2[4:1],2<7[4:1],7<4[4:1],4>2[16:3],
{16},,,,1,8,{8}7,5b<8[4:1]/1b>4[4:1],6/2,,,,2b/1b,
,6b/5b,,8b/7b,,4b/3b,
7,{16}1,2,{8}3,{16}7,6,{8}5,3,{4}3h[8:3],
{16},,7,6,{8}5-1[8:1],1,2-6[8:1],3,8,7<3[8:3],
,3,{4}3>7[4:1],{16},,,,2x,3,4,5,
{2}6<2[4:1],{16}7x,6,5,4,{4}3,
{8}1/8,7-3[8:1],,3/7,{4}4-8[8:1],{8}4,5,
6,7b-2b[8:1],,3b-6b[8:1],,8bw4[8:1],{32},,,,,B8,Cf,B4,
{4}A4,{64}1/7,6/2,5/3,4h[64:21],{4},{16},6,7,{4}8b/3b-7[8:1],
{8}3,5-1[8:1],,5,{4}2-6[8:1],{8}2,8-4[8:1],
,8,{4}3>6[2:1],{2}3,
{4}5-1[8:1],{8}5,4-8[8:1],,4,{4}6h[4:1],
{8}1,2/5,{16}3,4,{8}3-7[8:1],,6-4[8:1],6,2-8[8:1],
2,6b-3b[8:1],,2b-7b[8:1],,5b-8b[8:1],,,{4}1x>4[4:1],
4<7[4:1],,8-3[4:1],
{2}3-6[4:1],{4}8<5[4:1],5>2[4:1],
,6-1[4:1],{2}1-4[4:1],
{4}1-6[4:1],6-3[4:1],,8<5[4:1],
5>2[4:1],{8},,,,8/7,8x/7x,
,6/1,{4}6x/1x,{8}5/2,2x/5x,,4/3,
{4}4bx/3bx,{8}7v4b[8:1]/1v4b[8:1],7/1,{4}7bx/1bx,{8}8v5b[8:1]/2v5b[8:1],2/8,
{4}2bx/8bx,{8}6/4,7,8b/3b,4,5,1b/6b,
5,4,7b/3b,{16}1,2,{8}3,4x,5x,6x,
{1}7bx<7[16:15]*>7[16:15],
{8},,,,5/1,5/1,,6/2,
,6/2,,3/7,,8/4,,B6/B5,
{6}B3/B4,B7/B6,B2/B3,B8/B7,{3}B1/B2,
{8}8/1,8/1,8/1,8/1,8/1,8/1,8/1,8/1,
1/8<8[8:45],8/1,{4}8b/1b,{1},,,,,,{2}4h[4:11]/5h[2:1],
{4},6h[2:1],,,7h[2:1],
,,8h[2:1],
,,{2}5h[2:1]/3h[2:1],
{4},7h[2:1]/1h[2:1],{8},,,,8/2,
5<8[8:1]/4>1[8:1],,5/4,,6,7,8<5[8:1]/1>4[8:1],
,1/8,,2,1,7<4[8:1]/8>3[8:1],,8/7,
,7,8,1<6[8:1]/2>5[8:1],,2-6[8:1]/1-5[8:1],,2/1,
,,,,,,{4}8b<4[8:3]/4b>8[8:3],
,,6b/2b,{8}1/8,7/2,
6/3,4/5,{4}3b/7b-3[8:1],{8}2-7[8:1],2,6-3[8:1],6,
1-5[8:1],1,{16}8,7,{8}6-1[8:1],,6,3-8[8:1],3,
7-4[8:1],7,1,2,3b/5b,5,6/4,{16}1,2,
{8}3<6[4:1],6,{4}6<1[4:1],1>4[4:1],4-8[4:1],
{8}7,6,5,{16}1,2,{8}3/7,7,{4}7b-3[8:1],
{8}2-6[8:1],2,5-1[8:1],5,4-8[8:1],4,{16},,7-3[8:1],6,
{4}5,{8}1-5[8:1],1,6-2[8:1],6,3-7[8:1],3,
8-4[8:1],8,{16},,1,2,{8}3/6,6,{4}6<1[4:1],
1>4[4:1],4<7[4:1],{2}7>2[4:1],
{8},,7bx/1bx,6bx,5bx/4bx,3bx,2bx/8bx,7bx,
6bx/1bx,2bx,3bx/5bx,6bx,7bx/1bx,6bx/2bx,5-1[8:1]/3-7[8:1],5/3,
,,,,4-8[8:1]/6-2[8:1],4/6,,,,,5/4,
8<5[8:1]/1>4[8:1],,8/1,,7/2,
7/2,5<8[8:1]/4>1[8:1],,5/4,,,2,3,
4-1[8:1],5,{4}6,{8}8,7,6-1[8:1],5,
{4}4,{8}2,3,4-8[8:1],5,6,7,
1,2,3-6[8:1],4,{4}5,{8}7,8,
1-6[8:1],2,{4}3,{8}2,1,8-3[8:1],7,
6,5,4-7[8:1],3,2,1,8-4[8:1],4-1[8:1],
,,6-3[8:1],3-7[8:1],,,1b,2,
3,4,5-2[8:1],6,1,8,7,6,
5-8[16:3],4,3,2,1-4[8:1],8,7,6,
5,4,3-6[8:1],2,1,8,7-2[8:1],6,
5,4,3,2,{4}8<5[8:1]/1>4[8:1],1/8,
7<4[8:1]/8>3[8:1],7/8,{8}6/8,6,,1/3,
3,,,7/1,5/3,8/2,{4}6b-2[1:2]/4b-8[1:2],
E
