&title=幸福刑
&artist=25時、ナイトコードで。 × MEIKO
&first=2.82
&des=Efoserp
&lv_5=13+
&inote_5=(140)
{24}2x,3,4,5/6,7,8,2x,3,4,5/6,7,8,1xpp6[4:1],,3,,5,,7x,,,,,,
{8}7b<4[8:1],,7/3,2,1,8qq3[4:1],7/6,8,
{8},8,6,7/5,4,2/5,6,4/7,
{8}2>5[8:1],,2/6,7,8,1pp6[4:1],2/3,1,
{8},5,3,2/5,6,B6/E7,B6/E7,,
{8}7<4[8:1],,7/4,3,2,1qq4[4:1],6/8,1,
{8},7,5,6/4,3,2/5,6,4/7,
{8}2>5[8:1],,2/5,6,7,8pp5[4:1],1/3,8,
{8},1,3,2/4,5-1[8:1],,1-5[4:15],,
{8},,,,,B3,,,
{8}E7,,,,,E2,,,
{8}B8,,,,,B4,,,
{8}E8,,,,,E5,,,
{8}6hx[1:2],,,,,B2,,,
{8}E6,,,,,E3,,,
{8}3hx[4:7],,,,,B7,,,
{8}E4,,,,,E1,,,
{8}6/8-3[8:1],,6,7,2-5[8:1]/8,,2/7,8q5q7[8:5],
{8},8,1,2,3,2,1,,
{8}7-4[8:1]/1,,1,2,3/5,,2,2/5<2-8<7-5b[8:5],
{8},4,4,,,,,,
{8}4/5-1[8:1],7,6/5,4,3/5-1[8:1],7,6/5,4q7>2[8:5],
{8},4/3,2,1,2,3,4,3h[8:5],
{8},6,7,8,7,,8/2-4[8:1],3,
{8}1x/2x,,8>3[8:1]/2,7/1,8x/6x,,8<5[8:1]/4,7,
{8}8x/4x>1[8:1],3,8/4,7x,6hx[4:1]/8x,,5hx[4:1],7,
{8}8x-6[8:1],,8/2,3x,4xqq7pp3[16:13]/5x,,7,5,
{8}6x,4,8,5x,6x,,1x/2x,3,
{8}4x/6x,,7/5,8x,3x/4x,2,6/5,7x,
{8}4x-8[8:1]/2x,3,4x/6x-1[8:1],7,6x/4x-1[8:1],3,6x<5-1[2:1]/4x,7,
{4}6h[4:3],,,3v2<1v8<7v6b[8:5],
{8},,,,,,7/4>8[8:1],5/2,
{8}7b-4[8:1]/4b,5,7/3>8[8:1],,7-4[8:1]/3,5,7/2-6V84-2[16:9],,
{8}7/2,5,1,6,8V64[8:1]*p4[8:1],,,,
{8}2-5[8:1]/1-4[8:1],3,1/2,,7-4[8:1]/8-5[8:1],6,8/7,,
{8}1/3-1[8:1],4,3/8-4[8:1],7,8-6[8:1]*-5[8:1]/6,,,,
{8}1-5[8:1]/7,2,3/1,,8-4[8:1]/2,7,6/8,,
{8}1-6[8:1]/8,2,3/1-4-1-5[8:3],2,1-5[8:1]/7-5[8:1],,,,
{8}6<1[8:1]/4h[4:1],5,,,8h[4:1]/2-6-4[16:3],4,,,
{8}7,6,4q1[16:3]/3,2/7,5p8[16:3],,5,,
{12}2bh,2,4,3,3,6,4h,7,3,5,1,7,
{12}3h,1,2,6,8,7,4h,1,3,5,1,6,
{12}3h,3,5,2,2,4,1h,6,2,4,8,6,
{12}4h,2,3,7,5,6,1h,4,2,8,4,7,
{12}2-5[32:3],,,2/8-4[32:3],,1,1-6[32:3],,7,7-3[32:3],,,
{12}2-8[32:3],,6,6-4[32:3],,3,3-7[32:3],,8,8,,,
{12}1-5[32:3],,,6/1<6[32:3],,4,4/1>4[32:3],,5,5/1-6[32:3],,3,
{4}3/1-4[32:3],5-1[8:1]/1,5/2-6[8:1],2/7,
{4}E4,B7,B5,C,
{8}2bv5[8:1]/5b,4,2/6-8>1[8:1],,2v5[8:1]/6,4,2/7-4-2<1-6-8[16:9],,
{8}2/7,1,5,3,1>2-4<5[8:1]*V35[8:1],,,,
{8}7v4[8:1]/8-5[8:1],6/4,8/7,,2-5[8:1]/1v4[8:1],3/5,1/2,,
{8}8/6-8[8:1],5,6/1-5[8:1],2,1>2>3<4[8:1]*-4[8:1]/3,,,,
{8}8v5[8:1]/2,7,6/8,,1v4[8:1]/7,2,3/1,,
{8}8-3[8:1]/1,7,5/8-5V37[16:5],6,8/2,,,,
{8}3>8[8:1]/5h[4:1],4,3,,1V35[16:3]/7-3-5[16:3],5/4,7/1,,
{8}2/8,3,5p8b[16:3]/6,7/2,4q1b[16:3],,4,,
{16}7b-4[8:1],,6,8,7,,3,,2-5[8:1]/8,,3,1,2,,7,,
{16}6/8-4[8:1],,7,1,8,,3,,2/8,,3,1,2,8,3,7,
{16}4-8[8:1],,3,5,4,,7,,5-1[8:1],,6,4,5,,2,,
{16}3-8[8:1],,2,5,3,,6,,5-1[8:1],,7,4,5,,3,8,
{16}2-5[8:1],,3,1,2,,6,,7-4[8:1]/1,,6,8,7,,2,,
{16}3/1-5[8:1],,2,8,1,,6,4,7-3[8:1],,6,8,7,,2,4,
{8}1v6[8:1]*v4[8:1],,1,,2>5[8:1],1,7-4[8:1],8,
{8}3-8[8:1],2,7<4[8:1],6,1-5[8:1],2,6-8-5-7-2-6[8:11],7,
{1}3h[2:3],
{8},,,,,8/4,{256}8<4V68[1:1],4b>8V24b[1:1],,,,,,,,,,,,,,,,,,,,,,,,,,,,,,,,,,,,,,,,,,,,,,,,,,,,,,,,,,,,,,,
E
