&title=Sargasso
&artist=Aoi
&first=0
&des=씨발
&des_5=
&lv_5=14+
&inote_5=(175){4},,,,{32}1b/8b,
2/7,3q8[16:53]/6p1[16:53],4/5,{1},,,{4},,,{16},,2,
,,2,,,{8}6,{16},6,,,{8}3,4,
{16}5/2,,,2,,,{8}8,{16},8,,,{8}1,7,
{16}2/6,,,6/2,,,{8}4/8,{16},4/8,,,{4}1h[8:1]/7h[8:1],
{32}1/2,3,{16}4,{32},,8/7,6,{8}5,{32}2/1,3,{16}4,{32},,8/7,6,{8}5,{32}2/1,3,4,5,6,7,8,1,
{4}Cf/2qq3<6[4:3],{8},,,,7,8qq4<5-3[8:7],
,,,,,,2,1qq3<6[8:7],
,,,,,,7,8V27[8:3],
,,4,3-6b[8:1],{16},,,7,,,{8}8,
{16}2x>5[8:1],1,,1,{8}2,6,{16}7x<4[8:1],8,,8,7,,,2x,
1,2,7x,8,7,3x,4,2,6x,5,7,3xh[16:3],,,8x,8,
1,1,6,6,3,3,4,4,{32}1x/A5,D6,A6,D7,,,8x/A2,D3,A3,D4,,,5x/1x,8x/4x,7x/3x,6x/2x,
{8}1x/5bxh[8:5],{32},,,,,,,,,,,,,,,,A2,B2,Cf,B6,{4}A6,
7/8h[8:1],3/2h[8:1],5/6h[8:1],5/4h[8:1],
{2}2b-6b[8:1],{8}5/7,5/7,{16}1,1,1,1,
{8}1b>6[4:1],,,6,7h[8:1],8,2h[8:1],1,
8/7,{16}6,5,7,3,4,2,{8}5h[8:1],1,{32}2x,3,4,5,,,,,8x,
7,6,5,,,,,{8}1/2,3,6h[8:1],5,{16}3,7,8,6,
{8}2bh[8:1],{16}5,4,{8}6bh[8:1],{16}1,8bh[8:1],,2bh[8:1],1,1,{4}3b>4b[8:3],
{2}Cf,{32}3x/5x-1[8:1],2x,1x,8x,,,{16}5,{32},,,,,,,,8x/2x,
7x,6x,5x,,,{16}2h[16:1],1h[16:1],2h[16:1],{8}1h[16:1],{32}8x/3h[16:1],7x,{16}6x,{32},,7x/3h[16:1],6x,{8}5x,{32}6x/3h[16:1],5x,{16}4x,
2V46[16:3],1,2,1,{4}2,{16}7V53[16:3],8,7,8,{4}7,
{8}2h[16:1]/1h[16:1],2h[16:1]/1h[16:1],4h[16:1]/3h[16:1],4h[16:1]/3h[16:1],{4}5b-2[8:1]/6b-3[8:1],5/6,
{16}1b,8,3,4,{8}2-5[8:1],7-1[8:1],2,7,{16}4,3,{8}2h[8:1],
{16}8b,1,6,5,7,2,4,3,{8}6h[8:1],8h[8:1],4h[8:1],2h[32:3],
{32}3/6-3[8:1]*-1[8:1],4/7,{16}5/8,,,{4}6,{8}7h[8:1],8,{16}2h[8:1],1,{8}1,
{32}2/8h[16:1],3,{16}4,{32},,3/8h[16:1],4,{8}5,{32}7/2h[16:1],6,{16}5,{32},,6/2h[16:1],5,{8}4,{32}3h,4h,,,{8}2h,
{16}7b,8,5,4,6,2,1,2,{32}8b,7,{16}6,{32},,3b,4,{8}5,{32}7b,6,{16}5,
,3,{8}4,2/1,{16}7,8,{32}6b,5,{16}4,{32},,1b,2,{8}3,{32}7b,6,{16}5,
2,1,2,1,3,5,3,5,8,7,8,7,{24}1-5b[8:1],5,1,5,1,5pp4[48:23],
{4}1pp8[16:7],,,C,
{8}1b/2b-5[8:1],{16}3,4,{8}2,6,{16}4-1[8:1],7,{8}5,4/8<2[4:1],7,
{4}6b,{32}8x,7,6,5,2x,1,8,7,{8}4h[8:1],8h[8:1],6h[8:1],2,
3/8-5[8:1],{16}7,1,{8}8,3,{16}7-4[8:1],5,{8}6,7/4<2[4:1],2,
{4}1b,{8}3,{16}8,8,{32}3x,4x,,,7x,6x,,,2x,3x,,,8x,7x,,,{8}2b-5[8:1],
{16}3,4,{8}2,6,{16}4-1[8:1],7,{8}5,4/8,7,
{16}6<1[8:1],6,{8}8,{24}2,3,4,5,,,{8}8/2,4/3,5/6,7/1,
{16}2,1,4,7,8,5,{24}2,3,4,{16}5b/7b,,,8b/1b,,2,{8}4b/2b,
3/5,4/6,5/7,{16}8,3,1,2,7,8,6,1,4,3,
{32}5xqq1[2:1],6x,{16}7xV16-4[16:7],,,,,,,,,,,,,,,{2}Ch[4:1]/2<3b[2:1],
1xp4[8:1],
{8}6b/2b-5[8:1],{16}1,8,{8}2,7,{24}3,1,3,1<3[4:1],3,1,{8}3,7/1,
,8,{16}2,7,3,5,{8}1,8/2,{16}3,7,5,6,
{8}2-4[8:1],{16}5,5,2-6[8:1],7,{8}7,{16}2V48[4:1],1,,1,{8}2,7,
{4}5h[4:1],{16}8,7,2,1,{24}3,4,5,6,7,8,{8}1/5,4/3,
5b/7b,{24}6,5,4,{8}3b/2b,{24}3,4,5,{8}6b/7b,{24}6,5,4,{8}2b/3b,{24}1/8,7,6,
{8}5,4/3,2/1,7/8,{32}2bx,3,4,5,1bx,8,7,6,4b,3,2,1,{8}4bxpp7[8:27]/8bxpp3[8:27],
{1},,,,
{1}4x>5[4:14]`C,
{1},
{1},
{4},,,,
{4}4q5[4:10],5h[32:1],,6h[32:1],
{4},7h[32:1],,8h[32:1],
{4},1h[32:1],,2h[32:1],
{4}3q6[4:2],,,C,
{16}7h[8:1]/5b,,5,,6/4,,4,,6h[8:1],,3,3,5h[8:1],,2,2,
{16}4h[8:1],,1,,3/5,,8,,2h[8:1],,7,7,3h[8:1],,6,6,
{16}4h[8:1],,5,,6h[8:1],,5,,4,,5,4,6,3,7,,
{16}2/8,,1,2,36,,4/5,,{8}6<1[8:1],{16},1,6,,2,,
{16}3b,5,4,6x,4,5,3xh[8:1],,{24}7,6,5,2,3,4,{4}8b,
{16}3b,4,2,6x,5,7,{24}1x,8,1,{8}8-4[12:1],27,1b/8b,,
{24}3b,4,3,{16}4,2,{24}6b,5,6,{16}5,7,{24}1b,2,3,{16}4,{24}7b,6,5,{16}4,{24}2b,3,4,
{8}5s1[4:2],1h[16:1],1h[16:1],8h[16:1],7-3[8:1],6,,,
{4}C,,,3q3[8:3]`7p7[8:3],
{4},,1w5[8:1],,
{16}2h[4:1]/7b,,,,4,,68,,17,,2-5[8:1],8,3,1,2,,
{16}6h[8:1],,5,7,1,8,2,5,3,4,2,7,1,,28,,
{16}3h[8:1],,8,7,46,,35,,24,,3,7h[8:1],,1,8/2>5[16:3],,
{16}7,6,5/2,6,7,8,61,7,8-4[8:1],1,2,3,4/8,,,,
{16}2/5-1[8:1],,,,3/5,,4h[8:1],,8,,7-3[8:1],1,8,,4h[4:1]/7,,
{16},,2,3,8,1,7,2,6-1[16:1],5,7,5,6,,,,
{24}8bh/2,3,4,{8}5/8h,C,{24}1bh/7,6,5,{8}4/1h,C,{24}1b,2,3,48,7,6,
{16}51,,3,4,2h[8:1],,1,3,8,4,7,,56,,1h[8:1]/8,,
{32}7b,26,35,4,{8},2>5[8:1]/7,{16}1,8,2,,6-3[8:1],,7,8,1h[8:1]/6,,
{16},,2,2,8,3,1,4,6,6,8,7,1,6,2-6[32:3],,
{16}17,,28,,8-4[32:3],7,4/6,3,28,,{24}1,5,1,5,1,5,1b<6[8:1]*>4[8:1],,,
{8},1bw5[8:1],,1b,,{8}81,{32}7,6,5,4,3,2,1,8,
{16}4b/7b,,6,5,6,5,47,,5,6,4b/7b,,3/6,,{32}2b,3,4,5,
{32}6,7,8,1,{8}2b/5b,{16}3,4,3,4,5b/2b,,4,3,5b/2b,,4b/3b,,
{32}2x,3,4,5,1x,2,3,4,8x,1,2,3,7x,8,1,2,6x,7,8,1,{8}2/6pp4[8:3],{16}2,3,4/6b,,
{8},2h[16:1],1h[16:1],8<2[16:5],,8/6,1-5[8:1],,
{4}1b,{16}17,,3,4,3,,4,5,4,,56,,
{16}4/7h[8:1],,{24}8,1,2,{16}35,,7,8,7,,8,1,8-4[8:1],,12,,
{16}3/8b,,2,,15,,3,4,2,,6,5,7,,18,,
{16}27,,{24}2,3,4,{8}56,{16}7,8,,12,,3pp4-1[16:5],{24}8,7,6,{8}53,
{4}C,,{24}3x,4,3,{16}4,2,{8}7xh,{24}6x,5,6,
{16}5,7,{8}2xh,{24}1x,8,1,{16}8,2,{8}7xh[8:1],5,46,3/5,
{24}2x,1,3,{16}1,2,{8}6xh,{24}7x,8,6,{16}8,7,{8}3xh,{24}4x,5,4,5,4,5,
{24}3xh[96:1],6h[96:1],3h[96:1],6h[96:1],3h[96:1],6h[96:1],2xh[96:1],7h[96:1],2h[96:1],7h[96:1],2h[96:1],7h[96:1],
{32}1b,2,3,4,7b,6,5,4,2b,3,4,5,6bp1[8:23],5,4,3q8[32:89],
{4}C,
E
