&title=蒼穹舞楽
&artist=Capchii
&first=0
&des=SLoeil as SM_chennn
&des_5=SLoeil as SM_chennn
&lv_5=14
&inote_5=(195){1},,
{8}46,7,3,8h[4:1],,1,1,7,2^5[4:1],,5,,6,,7h[4:1],{24}1,2,3,{1}4qq7[8:11],{2}5h[4:1],5,
{8}61,2,5,3h[4:1],,8,8,1,7^2[4:1],,2,,3,,4,,{8}5h[4:1]/8h[4:1],,,4h[4:1]/7h[4:1],,,3/6p3[4:3],,{1}2-7[2:1],
{4}1-6[8:1],1/7-3[8:1],7/4-1[8:1],46,8-3[8:1],8/2-6[8:1],2/5-8[8:1],53,
{4}2-5[8:1],28,7-4[8:1],71,2>6[4:1],6z2[4:1],8,8,
{8}17,6,5,7,82,3,4,2,16,5,4,7,83,4,5,2,
{16}7,1,6,2,5,3,8,2,7,3,6,4,{24}7,6,5,1,2,3,{1}8b/4bq5[8:5],
{1}6h[4:5],{2}4h[4:1],{4}3/7-3[8:1],1,
{16}2h[16:3],,,4,{8}2>7[4:1],18,{4}7p2[4:1],2,8-5[4:1],5-1[4:1],1-4[4:1],4,
{4}3^6[8:1],3pp6[2:1]/6,7h[16:3],7,8<4[4:1],4V28[4:1],8,4,
{4}2/6V83[4:1],3V51[2:1],1h[8:1],2h[8:1],3-5[8:1],6z2[8:3],2,1b,
{16}8h[16:3],,,7h[16:3],,,6p8[4:1],,{8}5,4,3,,{16}1h[16:3],,,2h[16:3],,,3q1[4:1],,{8}4,5,6,,
{16}7h[16:3],,,6h[16:3],,,5pp4[4:1],,{8}4,3,2,,{16}1h[16:3],,,8,,,2pp2[4:1]/7,,{12}6,6,6,{4}6,
{16}8-6[16:1],,,8-2[16:1],,,8,,{8}4,4,35,,{16}1-3[16:1],,,1-7[16:1],,,1,,{8}5,5,64,,
{16}8^5[16:1],,,8^3[16:1],,,8,,{8}4,4,26,,{16}5h[8:1]/7h[8:1],,,2h[8:1]/4h[8:1],,,36,,
{4}1p4[8:1]/8q5[8:1],1/8<1[2:3],{1}3h[4:7],,
{16}78,,6,5,6,,34,,2,1,2,,38,,47,,6,5,6,5,{8}6,47,36,25,18,36,
{16}2,8,3,7,4,6,1,7,2,6,3,5,{24}2,3,4,8,7,6,{1}5b/1bp8[2:1],
{2}6^3[4:1],{8}2,1qq4[8:5],,1/5h[8:3],,,,,,
{16}6,6,{8}5,7,{16}4/8,,,3/7,,,{8}2/6pp3[8:5],,3,3,4h[8:5],,,{4},
{16}6,5,{8}7,18,27,3,4qq1[1:1],,4/8h[8:3],,,,7h[8:3],,,,,6h[8:1],,5h[8:1],,
{16}2/4,,,3/5,,,{8}4/6pp1[8:5],,5>1[8:3],5,,,,{4},36,
{4}18,{12}7b,5,6,3,4,2,{8}15,2v5[8:1]/6v1[8:1],,2<3[8:3]/6,,,,,,
{16}8,8,{8}1,7,{16}2/6,,,3/7,,,{8}8/4V62[2:1],,1,8,7h[8:5],,,{4},
{16}4,,,35,,,{8}46,37,2-5[8:1]/8-4[8:1],,28,,{16}7,3,5,2,{8}8h[4:1],,1,2/7p6[8:3],,3h[4:1],,,,
{16}24,,,18,,,{8}5s1[1:1]/7,,6,7,8h[8:7],{1},
{1}2b/7b<2[4:6],,{4}1h[8:7],,,{8},{24}8,7,6,{2}5qq6[4:3],3,2qq3[4:3],,7h[2:1],6h[2:1],{1}5pp1[8:11],,
{4}2^5[8:1],2/8-4[8:1],8/3-8[8:1],35,7^4[8:1],7/1-5[8:1],1/6-1[8:1],64,2-5[8:1],28,6-1[8:1],46,2V46[4:1],6s2[4:1],8h[8:1],8,
{8}1>7[4:1]/7,6,17,8,1-5[8:1],2,1/3-8[8:1],4,3/7-4[8:1],6,2-6[8:1]/7,3,26,7,18,27,
{16}4,5,4,5,3,6,3,6,2,7,2,7,{24}1,2,3,8,7,6,{2}4/5p4[2:1],{4}2-6[8:1],2b,
{16}8-5[16:1],,,8-3[16:1],,,{8}8,7,46,3,25,{16}1-4[16:1],,,1-6[16:1],,,{8}1,2,53,6,74,
{16}8-5[16:1],,,8v3[16:1],,,{8}8,7h[4:1],2,{32}2,3,4,5,6,7,8,1,{16}26,,,47,,,{8}35,1-4[8:1]/8-5[8:1],,1b/8b,,
{16}7^4[16:1],,,7/1-5[16:1],,,{8}18,7,46,3,25,{16}1^4[16:1],,,1/6^1[16:1],,,{8}56,2,38,4,56,
{16}7-3[16:1],,,7/1-5[16:1],,,{8}15,6,47,25,18,{12}2,2,2,6,6,6,{8}3v8[8:1],7^4[8:1],3b,7b,
{4}1-5[8:1],1^4[8:1]/6^1[8:1],16,{8}37,{24}37,26,15,{4}4v7[8:1]/8-3[8:1],4/8>7[4:1],82,1V35[4:1],17,1V74[4:1],13,1-4[8:1],1-6[8:1]/7,3/1w5[8:1],1,2b/8b,
{16}1^4[16:3]/6,,,4^7[16:3],,,{8}7,8-4[8:1],1,8/2,,{16}8^5[16:3]/3,,,5^2[16:3],,,{8}2,1,1,78,78,
{16}1h[8:1]/6h[8:1],,,3h[8:1]/8h[8:1],,,{8}45,72,{24}1,2,3,{8}4^1[8:1]/8^5[8:1],15,{2}4q5[2:1]/8,{4}7-3[8:1],7b,
{8}1-6[8:1],6,1^4[8:1],4,1-5[8:1],5,1,7,{16}1,2,3,4,1,8,7,6,{8}4-7[8:1]/5-8[8:1],36,,,
{16}2,1,{8}3,48,{16}7,8,{8}7,61,{16}5pp8[8:7],4,5,,1h[8:1],,,2h[8:1],,,3,,{4}4^1[8:1],4b,
{24}7,6,5,{8}4,18,18,2^5[8:1],{16}3,7,{8}2,6,{24}7,8,7,{8}8,1/6^1[8:1],5,2-5[8:1]/6,3,28,7,
{16}4-8[8:1]/8,,,7,4,,6,,{8}1-4[8:1]/5,6-1[8:1],1,6,{12}3,3,3,7,7,7,{8}1w5[8:1],28,1b,,
{8}3-7[8:1],3,1^6[8:1],1,4^1[8:1],4,7,7,{16}2,1,3,8,2,1,2,1,{32}2,3,4,5,6,7,8,1,{4}2b/6b,
{8}8^5[8:1],8,3^8[8:1],3,6-2[8:1],6,1,1,78,56,4pp7[16:5]/3qq8[16:5],12,{2}3b/4b,
{16}2,1,3,8,4,5,3,6,8,7,1,6,4,5,3,6,2,1,2,8,2,7,2,6,2,5,2,4,2,3,2,1,
{16}4,8,3,7,2,6,1,5,8,4,1,5,{32}2,3,4,5,6,7,8,1,{8}2/6<3[2:1],,4,4,5,5,{32}6,7,8,1,2,3,4,5,
{1}6pp3[4:7],,2>8[4:7],1h[8:7],,,,,E
