&title=daze
&artist=じん ft.メイリア from GARNiDELiA
&first=0
&des=はくこう
&lv_5=12+
&inote_5=(198)
{1},,
{16}7,,,,6,,,,5,,1-5[8:1],,1,,,,
{16},,,,4,,3,,2,,1-5[8:1],,,,8,,
{16},,,,4,,3,,2,,1-5[8:1],,,,7,,
{16},,,,4,,3,,2,,1-5[8:1],,,,6,,
{16},,7-2[8:1],,2-6[8:1],,6-3[8:1],,,,,,,,1b/8b,,
{16},,3,,5,,2,,4-7[8:1],,4,,1-3[32:3],,1,,
{16}8,,7-5[32:3],,4-7[8:1],,,,,,,,8,,17,,
{16},,6,,5,,7,,3-6[8:1],,3,,8-4[8:1],,8,,
{16}2s6[48:11],,,,,,,,7,,4,,5,,2b,,
{16},,6,,4,,7,,5-2[8:1],,5,,8-6[32:3],,8,,
{16}1,,2-4[32:3],,5-2[8:1],,,,,,,,1,,82,,
{16},,7,,5,,6,5,4,,2,,5,,4,,
{16}3-7[8:1]/7-4[8:1],,,,37,,,,,,65,,65,,48,,
{16},,,,1,,,,3,,4^6[48:5],,3,,,,
{16},,,,8,,,,6,,5^3[48:5],,6,,,,
{16},,,,1,,,,3,,4^6[48:5],,3,,,,
{16},,8,,5,,6,,2,,4,,3,,45,,
{16},,,,8,,,,5,,6-8[32:3],,5,,,,
{16},,,,1,,,,4,,3-1[32:3],,4,,,,
{16},,,,8,,,,5,,6-8[32:3],,5,,,,
{16},,1,,3,,4,5,6,,4,,5,,36,,
{16},,,,1,,,,3,,4^6[48:5],,2,,2,,
{16},,,,8,,,,6,,5^3[48:5],,7,,7,,
{16},,,,1,,,,3,,4^6[48:5],,2,,2,,
{16},,,,8,,5,,6,,4-2[32:3]/7-5[32:3],,,,,,
{16},,,,1,,,,4,,3-5[32:3],,6,,6,,
{16},,,,8,,,,5,,6-4[32:3],,3,,3,,
{16},,7-4[8:1],,3,,3,,,,8-4[8:1],,3>6[16:5],,3,,
{16},,,,,,,,45,,6,5,4,,2,,
{16}7p2[32:5],,,,2q7[32:5],,,,1,,,,,,5^2[8:1]/8^5[8:1],,
{16},,85,,,,1,,1,,4,3,5,,2,,
{16}2-4[32:3],,,,5,,,,7-4[8:1],,4,,3,,2,,
{16},,1-5[8:1],,6,,6,,,,7,,4,,5,,
{16}26,,,,18,,18,,,,7-5[32:3],,5,,7,,
{16},,4-7[8:1],,7,,4,,,,8-4[8:1],,4,,8,,
{16},,3,,4,,2-4[32:3],,2,,6v1[8:1],,6,,1,,
{16},,2,,38,,,,7,5,6,4,5,,2,,
{16}2-6[8:1],,,,6-2[8:1],,,,8,,,,,,4^7[8:1]/1^4[8:1],,
{16},,14,,,,8,,8,,5,6,4,,7,,
{16}7-5[32:3],,,,4,,,,2-5[8:1],,5,,6,,7b,,
{16},,8-4[8:1],,4,,,,2,,,35,,,76,,
{16}7-4[8:1]/6-1[8:1],,,,,,,,3,,8,,1,,26,,
{16},,3,,45,,6,,87,,1,,28,,7,,
{16}3b,6,5,6,5,,7b,3,4,3,4,,1b,6,5,,
{16}47,,25,,36,,18,,,,{24}1,2,3,4p8[8:1]/8p4[8:1],,,,,,
{16}4b/8b,,,,2-5[8:1],,4,,25,,7,,8-4[8:1],,4,,
{16}38,,3^6[8:1]*^1[48:5],,,,3,,,,,,8p4[8:1]*q4[8:1]/7,,,,
{16}8b,,,,2-6[8:1],,5,,26,,8,,7-4[8:1],,4,,
{16}37,,3^6[48:7]*v8[48:7],,,,3,,,,,,1,,8,,
{16}2-5[8:1]/7,,,,6,,6-1[8:1],,,,3-6[8:1],,3,,7-2[8:1],,
{16},,4-7[8:1],,4,,8-4[8:1],,,,,,3,,5,,
{16}2/6>3[8:1],,,,1,,8v3[8:1]*-5[8:1],,,,8,,,,4,,
{16}26,,7,5,6,,3,4,{24}2,,,8,7,6,5q1[8:1]/1q5[8:1],,,,,,
{16}5b/1b,,,,8-4[8:1],,4,,83,,1,,2-5[8:1],,5,,
{16}26,,6^3[8:1]*^8[48:5],,,,6,,,,,,1p5[8:1]*q5[8:1]/2,,,,
{16}1b,,,,7-3[8:1],,4,,37,,1,,2-5[8:1],,5,,
{16}62,,{24}6>2[32:7],7,8,{16}1,,6,,,,{16},,1-5[8:1],,8,,
{16}1/7pp4[16:7],,,,3,,3,,,,,,3-7[8:1],,2,,
{16}3/1pp6[16:7],,,,8,,8,,,,7,,8,,1,,
{16}26,,4,,8,,37,,5,,1,,26,,4-1[8:1]*-7[8:1]/5,,
{16},,4,,,,8h[4:1]/2,,,,5,7,4,6,3,5,
{16}2,,,,1b/8b,,,,7-5[32:3],,4,,37,,,,
{16}4-8[8:1]/1,,2,,34,,3^6[8:1],,,,7,,1,,,,
{16}4v1[8:1]/8v5[8:1],,,,48,,,,2-4[32:3],,5,,62,,,,
{16}5-1[8:1]/8,,7-4[8:1],,5,,7,,,,1,,2,,38,,
{16}1-6[8:1],,2,,3-8[8:1],,4,,5-1[8:1],,6,,7,,8,,
{16}2bq3[4:1]/7bp6[4:1],,,,,,,,,,8-4[8:1],,1,,8b,,
{16},,,,5,,6,,7,,8-4[8:1],,,,8b/1b,,
{16},,,,5,,6,,7,,8-4[8:1],,1,,8b/2b,,
{16},,,,5,,6,,7,,8-4[8:1],2,1,,8/2-6[8:1],,
{16},,8-4[8:1]/2,,,,8/2-6[8:1],,,,8-4[8:1]/2,,,,8/2-6[8:1],,
{16},,8-4[8:1]/2,,,,8/2-6[8:1],,,,8-4[8:1]/2,,,,8b/2b>1[4:2],,
{16},,,,,,,,,,,,,,,,
E
