&title=GAME:CHANGER
&artist=uma vs. ガリガリさむし
&first=0.015
&des=我已急哭
&lv_5=14+
&inote_5=(149)
{1}
,
{32}
5,4,5,,3,,3,,6,5,6,,4,,4,,7,6,5,,2,3,4,,,,,,,,,,
{16}
1h[8:4],,,,,,,,3,,,,,,,
8h[8:4],,,,,,,,6,,,,,
3,4h[16:5],,2h[16:3],,,,,
6,5h[16:5],,7h[16:3],,,,,
4,5,,63,,,3h[8:1],,4h[8:1],,5h[8:1],,6h[8:1],,4,4,5,5,,
3b-5[8:1]/6b-4[8:1],,,,,,,,,
4b/5b,,36,,4,5,,
2b-5[8:1]/7b-4[8:1],,,,,,,,
3b/6b,,,,,
34,34,,1hb[16:3]/6hb[16:3],,,,,
65,65,,3hb[16:3]/8hb[16:3],,,,,
45,45,,2b>8[16:9]/7b<1[16:9],,,,,,,,,,,,,,,,,
{8}
3h[8:1]/7h[8:1],,3h[8:1]/6h[8:1],,3h[8:1]/5h[8:1],,1h[8:1]/4h[8:1],,
6h[8:1]/2h[8:1],,6h[8:1]/3h[8:1],,6h[8:1]/4h[8:1],,8b/5b,,
{16}
3,3,4,4,5,5,6,6,{32}3,4,5,6,7,8,1,2,{12}5x,5x,5x,
{32}3bx,4,3,,3,,3,,6bx,5,6,,6,,6,,4bx-1[8:1],5,4,,4,,4,,5bx,,,,,,,,
{4}
7b-3[8:1]/1b,2b-5[8:1]/7b-1[8:1],2b/7b-4[8:1],1b/7b,
{16}
3b,4,2,4,3b,4,1,4,3b,4,2,4,3b,,6b/2b,,
5b-8[12:1]/4b,,,5b-2[12:1],,,5b,,8b,,7b/1b,,3b,,4b/2b,,
{32}6,5,6,,4,,4,,6,5,6,,4,,4,,7s3[8:2],6,5,,1,2,3,,,,,,,,,,4^7[8:1],,,,,,,,
{4}
1b^4[8:1]/4b,6b^1[8:1]/1b,3b/6b,
{16}
2b,8,3,8,2b,8,5,8,2b,8,3,7,1b,,2b/8b,,
3bx,4,3,5bx,4,5,2bx,4,3bx-8[8:1],,7bx-4[8:1]/1bx,,3bx/5bx,,7bx,,
2bxq5[8:4]*qq6[8:4],,,,,,,,,,,,,,,,
{4}
2b-6[8:1]/8b,7b-4[8:1]/2b-8[8:1],7b/2b-5[8:1],8b/2b,
{16}
6b,5,7,5,6b,5,8,5,6b,5,7,5,6b,,3b/7b,,
4b-1[12:1]/5b,,,4b-7[12:1],,,4b,,1b,,2b/8b,,6b,,5b/7b,,
{32}3,4,3,,5,,5,,3,4,3,,5,,5,,2v3-5[8:2],3,4,,8,7,6,,,,,,,,,,
{16}
7hx[32:1],7x,5,6,4,5,3,4,2hx[32:1],2x,4,3,5,4,6,5,
7hx[32:1],7x,1,6,2,5,3,4,2hx[32:1],2x,8,3,7,4,6,5,
{24}7x,8x,1x,2x,3x,4x,7x,8x,1x,2x,3x,4x,6x,7x,8x,1x,2x,3x,5x,6x,7x,8x,1x,2x,
{16}3bx/7bx,,,1bx/5bx,,,3bx/7bx,,3bx-8b[8:1]/7bx-4b[8:1],,,,3bx/7bx,,,,
{16}
2h[8:1],,4,1,4,2,4,3,7h[8:1],,5,6,5,7,5,8,
2h[8:1],,6,5,,3,4,,2-5[8:1]/6-1[8:1],,15,,,,,,
8/4h[8:1],,6b,,8h[8:1]/4,,2b,,84,,7b,1b,,,6b/2b,,
1bh[8:2]/7bh[8:2],,,,,,{24}8,17,26,{16}3-5[16:1]/5,,,7-3[12:1]/3,,,72,,
2bqq5<4b[8:6],,,,,,,,,,,,,,,,
6b,6b,,7b/5b,,,2b/4b,,4b^1b[8:1]/5b^8b[8:1],,,,4b/5b,,,,
2/8h[8:1],,5b,,2h[8:1]/8,,5b,,28,,3b,7b,,,1b/5b,,
8-3b[8:1],8,8-5b[8:1],8,8x-4b[8:1],,8x,,8bx,,,,
{32}D7,A6,D6,A5,D3,A3,D4,A4,
{1}6x<3>6[8:10],
{4},,,
{16}
2,4h[16:5],,3hb[16:3],,,,,
7,5h[16:5],,6hb[16:3],,,,,
4,5,,3b/6b,,,3h[8:1],,4h[8:1],,5h[8:1],,6h[8:1],,4,4,5,5,,
2b/7b,,,7h[8:1],,5h[8:1],,4h[8:1],,2h[8:1],,8,1,7,2,,
1b/8b,,3,4,3,5,4,6,5b,,5,8,,
7-4[12:1]/4,74,,1b,,,3,,
2-6[12:1]/6,26,,1b,,,7,,
7,4,5,2bx,4,2,1,2,6bx,4,6,8,
{32}5bx,4x,3x,2x,1x,8x,7x,6x,4bx,3x,2x,1x,8x,7x,6x,5x,
{1}E1f/D1,{8},,,
{24}3,6,4,5bw1b[8:1],,,,,,5b,,,,,,
{32}
7hb[8:1],,,,A2,E3,E4,A4,
8hb[8:1],,,,A1,B1,C,B5,
7hb[8:1],,,,A2,E3,E4,A4,
8hb[8:1],,,,A1,B1,C,B5,
{16}
6bx,,7bx/5bx,,3bx,,2bx/4bx,,7bx-3b[8:1]/8bx-4b[8:1],1bx/6bx,2bx/5bx,,7bx/8bx,,,,
1bw5b[8:1],,,,1b,,,,73,,65,,3,4,,2b/6b,,
7,1,{24}6,2,6,{16}2,8,5bh[16:5],,,,,4b,,,,
3,4,2x,,6,5,7x,,1,3,2x,,8,6,7x,,
34,,17,,56,,28,,3,3,4,4,5,5,6,6,
{1}8bqq5[32:23]*pp1[8:4],
{32}
1,2,3,,7,,8,,7,6,5,,2,,1,,2-6b[8:1],3,4,,8,7,6,,Cf,,,,,,,,
{16}
7h[8:6],,,,D6,,,,D5,,,,D4,,,,
3,3,3,3,3,3,3,3,{32}2x,3x,4x,,6,,6,,2x,3x,4x,,6,,6,,
{16}
1h[8:6],,,,E3/A3/D3,,,,B4/A4,,,,E6/A5/D6,,,,
8,8,8,8,8,8,8,8,{32}7x,6x,5x,,8,,8,,1x,2x,3x,,8,,8,,
{16}
7b,1,6,2,4,3,5,5,2b,8,3,7,5,6,4,4,
7b,1,6,2,4,3,5,5,{24}8x,1x,2x,3x,4x,5x,1x,8x,7x,6x,5x,4x,
{32}
2,3,4,5,6,7,8,1,27,3,4,5,6,7,8,1,26,3,4,5,6,7,8,1,25,3,4,5,6,7,8,1,
{16}2b/4bp5[8:2],,,,,,,,1b<5b[32:5]*>5b[32:5],,,,
{32}B1,D2/D1,D3/D8,D4/D7,D5/D6,A5,,,
{16}6x,,17,,24,,17,,{32}6x,5,6,,4,,4,,7x,5,7,,2,,4,,
{16}3x,,82,,75,,82,,{32}3x,4,3,,5,,5,,2x,4,2,,7,,5,,
{16}6bx,6,1,4,2bx,2,7,3,6,4,5bx,5,{24}1,2,3,8,7,6,
{16}
3hbx[16:1],4,3hx[16:1],5,3hx[16:1],4,3hx[16:1],6,
2hbx[16:1],8,4hx[16:1],8,6hx[16:1],8,4hx[16:1],8,
1x,1,7,5,6,4,5,3,8x,8,2,4,3,5,4,6,
{32}1x,8,2,,2,,2,,7x,1,6,,6,,6,,3x,7,5,,5x,,5x,,4x,,4x,,2x,,,,
{16}
3b,6,5,6,3,8,4,7,2b,5,4,5,2,7,3,6,
1b,4,3,4,1,6,2,5,
{32}
8^3[8:1],7^4[24:2],8,7,,,,,8b/7b,,,,,,,,
4x,5x,4x,5x,4x,5x,4x,5x,
4x,5x,4x,5x,4x,5x,4x,5x,
4x,5x,4x,5x,4x,5x,4x,5x,
4x,5x,4x,5x,4x,5x,4x,5x>6pp3b[32:21],
{16}
4bx>5pp4[8:5],,,,,,,,,,,,,,,,
{32}
2,,2,,8,,8,,4,,4,,6,,6,,1x,2,3,,7x,6,5,,2x,3,4,,8x,7,6,,
3,,3,,4,,4,,5,,5,,6,,6,,5h[32:1],,7h[32:1],,3h[32:1],,,,4bx/6bx,,4bx/6bx,,,,2bx/8bx,,
7,,7,,5,,5,,4,,4,,2,,2,,4h[32:1],,1h[32:1],,7h[32:1],,,,2bx/6bx,,6bx/2bx,,,,1bx/7bx,,
2x,3,4,5,8x,7,6,5,1x,2,3,4,1x,8,7,6,
2x,3,4,5,1x,2,3,4,7x,6,5,4,8x,7,6,5,
{16},,7bs3[8:4]/2bz6[8:4],,,,,,,,,,,,,,
{32}
4,5,4,,6,,6,,3,4,3,,5,,5,,1-5b[8:1],2,3,4,51,8,7,6,5b/1b`Cf,,
