&title=愛の残滓
&artist=藍月なくる
&first=-0.05
&des=Black Soil
&des_5=Black Soil
&lv_5=14
&inote_5=Black
Soil
(174){4},{16},,,,,,,,,,,,,,,2h[16:21]/7p5[16:13],
{1},{4},,,{1}7h[4:5]/2q4[16:13],
{16},,,,,,,,,,,,5x,6x,{8}7x>2[2:3],
,,,,{4}B3,C,
B6,Ch[12:5],,,,,,8qq5[4:5],
,4h[8:5],{24},,,,,,,,,,3x,2x,
{1}1xh[16:9],
{4}1xpp6[4:3],1h[8:5],{24},,,,,,,,,,2x,3x,
{4}4xh[2:1],{8},,,,3,2,
{4}1,1/8,{2}8h[8:3]/1h[8:3],
{16},,7x,6x,{4}5bxh[1:1],{16},,,,2x,3x,{8}4xh[8:3],
{24},,,,,,,Cf,{4},,,{16},,{24},{4}4h[4:1],
3h[4:1],2h[4:1],
1p5[16:1]*q4[8:9],{16}1b,Cf,,,,,,,,,,,{8}4,
4<7[4:3],,,,,,7p2[8:5],
{1}7,
{4},5h[16:3],6h[16:3],7h[16:3],
8q4[8:1]*p5[8:9],{16}8b,Cf,,,,,,,,,,,{8}5,
5>2[4:3],,,,,,2q7[8:9],
{1}2h[16:5],
{16},,,,,,,,,,,5/4,,6/3,,7/2,
,8/1>4[16:21],,,,,,,{8}7,6,{4}6h[8:3],
{8},,,7,{32}7h[4:1],,,,,,,,,,,,,7/2,,,,6/3,
,,,4/5<8[32:39],,,,,,,,,,,{8}2,3,{4}3h[8:1],
{16},,,3,,2,,2h[16:3],{4},{16},,{96},4bv1[8:1]/8bv5[8:1],,,,,,,,,,,,4b/8b,
,,,,,,,,,,,4b<8[8:1]/8b>4[8:1],{4},,{16},{64},,{96},{4}3bp7[8:1]/7bp3[8:1],
7b-1-4[16:1]/3b-5-8[16:1],{24},,,,,,,,,,,,6h[6:1],,,,,5h[8:1],
,,,{8}4h[8:1],{16}3h[8:1],,,4,3,5,2,4,{8}3,6h[8:1],
{16},5,6,4,7,5,6,4,5,3,6,2,{12}7,{24}1,2,3,4,
5,6,7,8,{12}1,2xv5[32:3]/8xv5[32:3],,,{4}8-6[12:1]/2p6[12:1],2/8-4[16:1],
{48}8b,,,,,,,,,,,,,1v4[12:1]/7v4[12:1],,,,,,,,,,,,1-3[12:1]/7q3[12:1],,,,,,,,,,,,7/1-5[16:1],,,,,,,,,,,,1b,
,,,,,,,,,,{24}3,2,{12}1v4[12:1],{24},,,,6/1,7,{12}8<6[24:1],{24},,,,2/8,3,
{6}4-8[24:1],{24}8,7,{4}4b/6-2b[12:1],{48}6b/1,Cf,{24}2,3,4,5,6,7,8,{6}1h[6:1],
{24},,,,,,,,,2,3,4,5h[8:1],,,,,3,4,5,{6}6<1[12:1],
{24},,6/5,4,3,2,,,,7,6,5,4h[8:1],,,,,6,5,4,{6}3>8[12:1],
{24},,3/4,5,6,7,,,,,,,8,7,6,5,{6}4h[24:5],{24}8-4[24:1],,,2w6[12:1],
{96},,,,,8b,,,,,,,,,,,,2b,{4},{16},{32}8w4[16:1],7,6,5,4,3,2,1,{4}8,
{24},,,,,,,,,,,,2,1,8x,7h[12:1],,,,1x,8,7,{12}4v1[12:1]/6v1[12:1],
{24},,,,6b/4b,Cf,,,,,,,7,8,1x,2h[12:1],,,8x,1,2,5v8[12:1]/3v8[12:1],,,,,,3b/5b,
Cf,,,,,,,,4,3,2,1-6[12:1],,,,7,6,1/5<7[24:1],,,,,,5/3,
2,{48},1-5[16:1],,,,,,,,,,,,1b/7-3b[16:1],,,,,,,,,,,,7b,{4}Cf,
{24},,,,,,,,,8/1,7/2,6/3,{4}4/5<7b[24:1],{32}4/5b,3,2,1w5[16:1],8x,7x,6x,5x,
4x,3x,2x,1x,{4},{16},,{24}1/8,2/7,3/6,5/4>2b[24:1],{16},,,{64},{192},{32}5/4b,6,7,8w4[16:1],
1x,2x,3x,4x,5x,6x,7x,8x,{4},{24}8,7,{12}6h[4:1],{24},,1,2,{12}3h[4:1],{24}7,6,
{2}5h[4:1],{24}5/4,3/6,2/7,8z4[16:1]/1s5[16:1],,,,,,{8}1/8,
{24},,,,,B4,,,,,,B5,,,,,,C,,,,,,,,,,,,B7,
,,,,,B6,,,,,,C,,,,,,,,,,,,B2,
,,,,,B3,,,,,,C,,,,,,,,,,,,B8,
,,,,,B1,,,,,,5bh[12:7]/Cf,{1},{4},5pp8[24:31],
{12}4,,3,{24},,,,,,{8}3,3h[8:5],
,,,,,,,,{4}4qq1[4:5],
5,6,{8}7,7h[8:5],
{16},,,,,,,,,,,,2,3,{8}4qq1[8:13],
,,,,{4}5,6,
7,8h[3:1],{24},,,,,,,,,,,E8/B7/B8,
,,{12}B2/B3/E3,,{4}Ch[16:5],{8},,{4}5h[2:1],
,4pp1[8:11],,,,6<1b[8:3],
,,,1>8[4:3],
,,,1h[4:1],
{16},,,,1,2,3,4,
5,6,7,8,{4}5x/1x,{2}6h[2:1]/2h[2:1],
{4},7h[16:1]/3h[16:1],,8h[16:1]/4h[16:1],
4<8[4:3]/8z4b[32:1],B4/B3/E4f,,,,1h[4:1],
2h[4:1],3h[4:1],
4q8[16:1]*p1[8:9],{16}4b,Cf,,,,,,,,,,,{8}1,
1<6[4:3],,,,,,6qq2[8:7],
{1}6,
{4},8h[16:3],7h[16:3],6h[16:3],
5p1[8:1]*q8[8:9],{16}5b,Cf,,,,,,,,,,,{8}8,
8>3[4:3],,,,,,3p6[8:9],
{1}3h[16:5],
{8},,,,,,6/3,3/6,
7/2,7h[8:1]/2h[8:1],{48},,,,,,,,,,,8/1,,,,,,8/1,,,,,,1h[4:1]/8h[4:1],,,,,,,,,,,,,,,,,,,{8}7/2,
6/3,6h[8:1]/3h[8:1],,,6/5,7/4,
{48}8h[12:1]/3h[12:1],,,,,,,,,,,,,2/8,,,,,,2/7,,,,,,2h[48:11]/6h[48:11],{4},,{16},,,{48},{8}6/3,
6/3,5h[16:3]/4h[16:3],,,3bv8[8:1]/7bv4[8:1],
3b/7b,3b<7[8:1]/7b>3[8:1],,,,,{4}3bp7[8:1]/7bp3[8:1],
7b-1-4[16:1]/3b-5-8[16:1],{16},,,,,,,,6h[16:3],,,5h[16:3],
,,{8}4h[16:3],{16},3h[16:3],,,,4,3,5,2,4,{24}3,,6h[6:1],
{48},,,,,,,,,{16}5,6,4,7,5,6,4,5,3,6,2,{24}7,{96},,,,1,,,2,
,,{48}3,{96},4,,,5,,,6,,,{48}7,,{16}8,{4}1w5b[2.1839##0.0575],{1},{4},{16},{32}1b,
Cf,{4},,{16},,{24}5,
6,7,8<5[24:1],,,,,,8/5-1b[8:1],4,3,
{6}2,{12}Cf,{24}2,3,4,5,6,7,8,5h[24:5]/1h[24:5],,,,,,6bx/2bx,7bx/3bx,8bx/4bx,,,,,,,,,4,
3,2,1>4b[24:1],{16},,,{64},{192},{32}1/4,{96}D3f,5,,,,{24}6,{4}7,
{24},,,,,,5,6,7,8<5b[24:1],{16},,,{64},{192},{32}8/5,{96}D7f,4,,,,{24}3,{4}2,
{24},,,,,,8,7,6,5<8b[24:1],{16},,,{64},{192},{32}5/8,{96}D7f,1,,,,{24}2,{4}3,
{24},,1,2,3,4>1b[24:1],{16},,,{64},{192},{96}4/1,,,D3f,{24}8,7,6,5,4,3,2,1,{6}8h[12:5],
{24},,,,,,,,,5,4,3,{4}2>5b[24:1],{48}2/6b,{96}D4f,7,,,{32}8,1,{4},{16},,,{64},{192},{24}6,
7,8,1<6b[24:1],{48},,,,,,,,,,1/5,{96}D8f,4,,,{48}3,{96},2,{4},,{64},{192},{24}8,
7,6,5<8b[12:1],{48},,,,,,,,,,5/1,{96}2,D7f,{48}3,4,{4},,{24},1,
2,3,4>1b[24:1],{16},,,{64},{192},{96}4/8,,,D3f,{24}7,6,5,4,3,2,
1,8h[4:1],,,,,,,,,,,1/8,2/7,3/6,5/4>2b[24:1],{16},,,{64},{192},{32}5/4b,6,7,8w4[16:1],
1x,2x,3x,4x,5x,6x,7x,8x,{4},{24}4/3,5/2,6/1,8/7<4[8:1],,,,,,7b/4,3,2,
1,8,7,6,5,4h[6:1],,,,,,,8,7,{12}6h[4:1],{24},,1,2,{12}3h[4:1],{24}7,6,
{8}5h[4:1],,,5/4,{48},5/4,,,6/3,,,7/2,,,{24}1s5[12:1]/8z4[12:1],,,,,,8/1,
,,,,,,,,{3}B7/E1/E3/E5/E6/E8/B8/E7/B1/B2/B3/E4/B4/B5/B6/E2/Cfh[24:7],{24},,,,,,,,{8}E8/E7/A6/E6/B6/B7/A7/D7,
,,E3f/E2/B2/A3/D3/A2/B3/E4,{24},,,,{3}B8/E8/B7,
{4}E3/B3/B4/E4,B7/B6/B5/C,{24}B7,B6,B5,B4,B3,B2,B1,B8,{6}B7f,
{8}D3/A3/D4/E4/B3/E3,,,E1/B8/B7/E8/A8/B1,{32},,B7,E7,B6,A6,{16}E6,,,{8}B7/E7/B6/A6/D6/A5/E6,
,Cf/E6/E7/E8/E1/B1/B2/E5/E3/E4/B4/B5/B6/B7/B8/B3/E2,{32},,,,,,2bx,3bx,{8}4bx/E6f/B6/E7/A6/D6/A5/B5/D7,{32},,,,,,,,8bx,{96}7bx,B3f/B2/E3/A3/E4/B4/A2/D3/D4/A4/E2/D2/E5/D5,,{16}6bx,
{32},,,,,,,,6bx,{96}5bx,B1f/A1/E1/B8/B2/E2/D2/D1/A8/E8/D8/A2/E3/D3,,{16}4bx,{32},,,,,,,2bx,3bx/A8/D8/A7/D7/E7/B7/B1/E1/D1/B8/A6/B6/E8f,4bx,{4},{16},{24}A8,
D8,A7,D7,A6,D6,A5,D5,A4,D4,A3,D3,A2,D2,A1,D1,{3}8xh[12:13],
{12},,,,,,,,,,,,,,,{4}2>3<4<5<6<7>8>1>2[8:21],
,E1,
,B1,,B2,
,B3,,B4,
,B5/7<6>5>4>2<1<8<7b[4:15],,B6,
,B7,,B8,
,E1,,B1,
,B2,,B3,
,B4,{8},,2/7,7/2,
3/6,3h[8:1]/6h[8:1],{48},,,,,,,,,,,4/5,,,,,,4/5,,,,,,5h[4:1]/4h[4:1],,,,,,,,,,,,,,,,,,,{8}3/6,
2/7,2h[8:1]/7h[8:1],,,2/7,3/6,
{4}4h[12:1]/5h[12:1],{8}4/5,3/5,2/5,2h[4:1]/5h[4:1],,,,6/3,
2/7,1h[16:3]/8h[16:3],,,,6bv1[8:1]/2bv5[8:1],
6b/2b,6b>2[8:1]/2b<6[8:1],,,,,{4}6bq2[8:1]/2bq6[8:1],
2b-8-5[16:1]/6b-4-1[16:1],{16},,,,,,,,5,4,6,3,
7,2,{8}8h[24:5],{16},,1,1,2,2,3,3,4,4,5,5,
6,6,7,7,8,8,{24}1,2,3,4,5,6,{96}7,,,8,,,{32}1h,2h,3h,4h,5h,6h,7h,8h,1h,2h,
3h,4h,5h,6h,7h,8h,{96},,{24}1h,{4}8v5[12:1]/2v5[12:1],8-6[12:1]/2p6[12:1],2/8-4[16:1],
8b,1v4[12:1]/7v4[12:1],1-3[12:1]/7q3[12:1],7/1-5[16:1],
{12}1b,{24},,,,,,,,3,2,{4}1v4[12:1],{24}6/1,7,{6}8<6[24:1],
{24},,2/8,3,{6}4-8[24:1],{24}8,7,{12}4b/6-2b[12:1],{96},,,,,,,,,,,,,,,,6b/1,,,Cf,{24}2,3,4,5,6,7,8,
{3}1,{24}2,3,4,5h[8:1],,,,,3,4,5,6<1[12:1],,,,,,6/5,
{192}4,,,A8f,,,,,{24}3,2,{96},,,,,,,,,,,7,,,,6,,,,{32}5,{96},4h[8:1],,,,,,,,,,,,,,,,,,,,{32}6,{96},5,,,,4,,,,{32}3>8[12:1],,,,,,,,3/4,
{96},5,{192},,,A1f,,,{96}6,,,,{32}7,{96},,,,,,,,,,,,,,{24}2,3,{12}4h[6:1],{24},,8,7,{12}6h[24:5],{24},,,,1b,2,
3,7b,6,5,,,,5h[12:1]/4h[12:1],{48},,,,,,,,,,,{16}5/4,6/3,7/2,{4}1s5[8:1]/8z4[8:1],
{2}8/1,{24}4/5,3/6,2/7,8/1>3b[24:1],{16},,,{64},{192},{32}8/1b,7,6,5w1[16:1],
4x,3x,2x,1x,8x,7x,6x,5x,{4},{24}1/8,2/7,3/6,5/4>2b[24:1],{16},,,{64},{192},{32}5/4b,6,7,8w4[16:1],
1x,2x,3x,4x,5x,6x,7x,8x,{4},{24}5,6,{12}7h[4:1],{24},,4,3,{6}2h[4:1],
{12},8h[24:13],{24},,7,6,5,4,3,2,{4}1w5b[12:1],1b,
{8},,4/5,5/4,6/3,6/3,7/2,7/2,
8/1,8/2,8/3,8/4,8/5,8/6,8/7,8/1,
1/8,1/8,{24}1,2,3,4,5,6,7,8,1/5,4,3,2,1,8,7,6,5/1,2,
3,4,5,6,7,8,1/5,4,3,2,1,8,7,6,5/1h,{96}2h,,,3h,,,{32}4h,5h,6h,7h,8h,1h,2h,3h,4h,5h,
6h,7h,8h,1h/5<4<5<4<5b[32:299],{4},,{16},,{4}E1,
,B1,,B2,
,B3,,B4,
,B5,,B6,
,B7,,B8,
,E1,,,E3,
,,E5,
,,,E7,
,,,E1,
{16},,,,,,,,,,,,E3,,,B2,
,,,,,,,,,,,,,,,,{1}B1,
{4}B8,,,B7,
{8},,,,B6,,,B5,
,,{4}B2,{16},B8,,,,B6,,,B5,
,,B4,,,B3,B2,B1,B8,B7,B6,B5,B4,B3,B2,
B1,B8,{24}B7,B6,B5,B4,B3,B2,B1,B8,B7,B6,B5,B4,B3,B2,B1,{4}E1,
E
