&title=メリーバッドエンド
&artist=まふまふ
&first=0
&des=MCV_001
&wholebpm=200
&des_6=MCV_001
&lv_6=13+
&inote_6=(200)
{1},
{1}3v8q4[4:5]/5h[4:3],C,
{1}6v3p5[4:5]/4h[4:3],C,
{1}2v8p1[4:5]/8h[4:3],C,
{4}7v4V68[2:1]/1h[4:3],,,,1/A5/B5,7/A3/B3,A2/A8/B2/B8/Cf/B4/B6/A4/A6,,
{8}3/5,5,4V62[4:1]/6,4,7,8-4[8:1],,8,,5-7[8:1],3,5,1-3[8:1],8,1,,
{8}6/4,4,5V73[4:1]/3,5,2,1-5[8:1],,1,E8,E4,E7,E3,E6,
{128}E2,,,,,,,,,,,,,,,E1/E5,
{8}C,,
{8}6/4,4,5V37[4:1]/3,5,2,1-5[8:1],,1,,4-2[8:1],6,4,8-6[8:1],1,8,,
{8}3/5,5,4V26[4:1]/6,4,7,8-4[8:1],,8,E2/D2,E6/D6,E3/D3,E7/D7,E4/D4,E8/D8,
{128}E5/D5,,,,,,,,,,,,,,,E1,
{8}D1f,
{8},4h[4:3],,7,7,,8,8>4[4:1],,4<8[4:1],,C,,3-7[8:1],3,5-1[8:1],
{8},5pp5[8:3]*qq5[8:3],,,,,,3V15[8:3],,4,5z1[8:3],6,,,,8qq8[8:3],
{8},4,3,2,1-5[8:1],,1,8V24[4:1],,4V68[4:1],,C,,1-5[8:1],2,3qq5[8:3],
{8},D6,D7,D8,D1,,7,6<2[4:1],,2v4[8:1],3-7b[8:1],,3b,,,C,
{8},5h[4:3],4,3,2,,1,1V75[4:1],,5V31[4:1],,C,,6-2[8:1],6,4V25-1-6-8b[2:1],
{8},,,,,,,6V84[8:3],,5,4s8[8:3],3,,,,1pp8[8:3],
{8},8,7,6,5-1[8:1],,5,4<8[4:1],,8>4[4:1],,C,,5-1[8:1],6,7pp4[2:1],
{8},D6,D5,D4,D3,D2,,8,1-5[8:1]/7,,1/7-3[8:1],,1/7,,2bx,,
{8}2bh[4:7]/6x,6x,6x,B5,,B6,,B7,,D4,D5,D6,D7,D8,D1,,
{8}3/5h[4:1],,A2/D2/E2,4h[4:1]/6,,A7/D8/E8,,C,5x/6,C,4x/6,C,6/3x,C,2bx,,
{8}2bh[4:7]/6,6,6,B5,,B6,,B7,,D4/E4,D5/E5,D6/E6,D7/E7,D8/E8,D1/E1,,
{8}6xh[1:1]/Ch[8:1],,,,,,,,C,,B1/B8/B4/B5/E1/E5,,B2/B3/B7/B6/E7/E3/D7/D3,,,,
{8}1b-5[8:1]/8,,1,6-2[8:1],,6,4,3-7[8:1],,3,1,8V64[4:1],,2/8,1,8>4[4:1],
{8},4v1[8:1],5,6,7,8-3[8:1]*-5[8:1],,8b,,4-1[8:1],6,4,8-5[8:1],2,8,,
{8}4b-8[8:1],,4,7-3[8:1],,7,1,2-6[8:1],,2,4,5V71[4:1],,3/5,4,5V31[4:1],
{8},1-7v4[4:1],8,7,6,5-2[8:1]*-8[8:1],,5b,,,1,2V47[4:1]/8V63[4:1],,,,,
{8}8b-4[8:1]/2,,8,3-7[8:1],,3,5,6-2[8:1],,6,8,1V35[4:1],,7/1,8,1<5[4:1],
{8},5v8[8:1],4,3,2,1-6[8:1]*-4[8:1],,1b,,5-8[8:1],3,5,1-4[8:1],7,1,,
{8}5b-1[8:1],,5,2-6[8:1],,2,8,7-3[8:1],,7,5,4V28[4:1],,6/4,5,4V68[4:1],
{8},8-2v5[4:1],1,2,3,4-7[8:1]*-1[8:1],,4b,,8-4[8:1],2,8,3-7[8:1],5,3,,
{8}C,,C/B1/B2/B3/B4/B5/B6/B7/B8,,B1/B2/B3/B4/B5/B6/B7/B8/E1/E2/E3/E4/E5/E6/E7/E8,,E1/E2/E3/E4/E5/E6/E7/E8/A1/A2/A3/A4/A5/A6/A7/A8,,C,C,C,C,Chf[4:1],,,,
{8}6/4,4,5V37[4:1]/3,5,2,1-5[8:1],,1,,4-2[8:1],6,4,8-6[8:1],1,8,,
{8}3/5,5,4V26[4:1]/6,4,7,8-4[8:1],,8,E2,E6,E3,E7,E4,
{128}E8,,,,,,,,,,,,,,,E1/E5,
{8}C,,
{8}3/5,5,4V62[4:1]/6,4,7,8-4[8:1],,8,,5-7[8:1],3,5,1-3[8:1],8,1,,
{8}6/4,4,5V73[4:1]/3,5,2,1-5[8:1],,1,E8/D8,E4/D4,E7/D7,E3/D3,E6/D6,E2/D2,
{128}E5/D5,,,,,,,,,,,,,,,E1,
{8}D1f,
{8},5h[4:3],,2,2,,1,1<5[4:1],,5>1[4:1],,C,,6-2[8:1],6,4-8[8:1],
{8},4qq3[8:3]*pp4[8:3],,,,,,6V84[8:3],,5,4s8[8:3],3,,,,1pp2[4:1],
{8},5,6,7,8-4[8:1],,8,1V75[4:1],,5V31[4:1],,C,,8-4[8:1],7,6pp4[8:3],
{8},D5,D4,D3,D2,,2,3>7[4:1],,7v5[8:1],6-2b[8:1],,6b,,,C,
{8},4h[4:3],5,6,7,,8,8V24[4:1],,4V68[4:1],,C,,3-7[8:1],3,5V74V28-5b[2:1],
{8},,,,,,,3V15[8:3],,4,5z1[8:3],6,,,,8qq1[8:3],
{8},1,2,3,4-8[8:1],,4,5>1[4:1],,1<5[4:1],,C,,4-8[8:1],3,2qq5[2:1],
{8},D4,D5,D6,D7,D8,,1,8b-4[8:1]/2,,8/2b-6[8:1],,{32}2b,B2,Cf,B6,{8}A6,,,
{8}5/6h[4:3],,,B4,B3,,,,5/6h[4:3],,B4,,B2,,,,
{8}4/5h[4:3],,B3,,B2,,B1,,5h[1:1]/B8,,B7,,B6,,,,
{8}4h[4:3],,,B6,B7,,,,5/4h[4:3],,B6,,B8,,,,
{8}4/3h[4:3],,B5,,B6,,B7,,3h[1:1]/B8,,B1,,B2,,,,
{8}7h[4:3],,,B1,B2,,,,8/7h[4:3],,B1,,B3,,,,
{8}1/8h[4:3],,B2,,B3,,B4,,8h[1:1]/B5,,B6,,B7,,,,
{8}1h[4:3],,,B7,B6,,B5,,1h[4:3]/B4,,B3,,B2,,B1,,
{8}2h[4:3]/8,,7,,6,,5,,2/4,,,,2b,,,,
{8}2bh[4:7]/6x,6x,6x,B5,,B6,,B7,,D4,D5,D6,D7,D8,D1,,
{8}3/5h[4:1],,A2/D2/E2,4h[4:1]/6,,A7/D8/E8,,C,5x/6,C,4x/6,C,6/3x,C,2bx,,
{8}2bh[4:7]/6,6,6,B5,,B6,,B7,,D4/E4,D5/E5,D6/E6,D7/E7,D8/E8,D1/E1,,
{8}6xh[1:1]/Ch[8:1],,,,,,,,C,,B3/B2/B6/B7/E3/E7,,B4/B5/B1/B8/E1/E5/D1/D5,,,,
{1}4bh[2:7]/5-7-1-3q5[4:10],,,{2},C,
{8}8-6[8:1],,8,4-2[8:1],,4,7,8qq8b[4:1],,,,,,1,2,3<6b[4:1],
{8},D7,D8,D1,D2,D3,,Ch[2:1],,,,,,,,,
{8}1bv4[8:1]/8,,1,6v1[8:1],,6,4,3v6[8:1],,3,1,8V64[4:1],,4/8,2,8>4[4:1],
{8},4v1[8:1],5,6,7,8-3[8:1]*-5[8:1],,8b,,4-1[8:1],6,4,8-5[8:1]*v3[8:1],8,8,,
{8}4bv1[8:1],,4,7v4[8:1],,7,1,2v7[8:1],,2,4,5V71[4:1],,3/5,4,5V31[4:1],
{8},1-7v4[4:1],8,7,6,5-2[8:1]*-8[8:1],,5b,,,1,2-6-1[4:1]/8-4-1[4:1],,2/8,,,
{16}3bx/7bx,,,4,5,,2bx/6bx,,,5,4,,3x/7x,,4>7[4:1]/8,,
{8},7,6,5V74-8[8:3],,4,3,2,
{8},3/7,2V41[4:1]/6V85[4:1],1/5,,,,{32}A2/A6,D3/D7,A3/A7,D4/D8,
{8},1x/5x,4/8,3/7,2/6,1/5,4<7[8:1]/8>3[8:1],,
{8}4bV27[4:1]/8bV63[4:1],,,,,4x-7[8:1]/8x-3[8:1],,{128}4b/8b,C,,,,,,,,,,,,,,,{8},4/8,3/7,2V41[4:1]/6,,1>5[16:3],8,7bpp4[2:1],
{8},D6,D5,D4,D3,D2,,1q5[8:1]/5,,6,7,8v3[8:1],,3,2-6b[8:1]*z6[8:1],,
{8}2b/Cf,,,,,,,,,,,,,,,,
{8}4h[4:1]/6,,7-3[8:1],,7,8>4[4:1],,4<8[4:1],,8V24[4:1],,4v1[8:1],,6,,,
{8}5h[4:1]/3,,2-6[8:1],,2,1<5[4:1],,5>1[4:1],,1V75[4:1],,5v8[8:1],,3,,,
{8},C,C,,B6/B7/E7/D7/B2/B3/E3/D3,,B1/B8/E1/D1/B4/B5/E5/D5,,1,2,3,4,5/A1,6/A2,7/A3,8/A4,
{4}1bp8<6v3>1[4:13],,,,,,,,
{4},,,,C,,,,
{4}6p3>1v8<6[4:13],,,,,,,,
{4},,,,C,,1-5[8:1]*s5[8:1],,
