&title=DIAVOLT Tube
&artist=楽曲破壊
&first=0
&des=纯鬼歌
&lv_5=14
&inote_5=(160)
{1},
{16}3,,,,4,,5,,6,,,6,5,,5,,
3,,,,4,,3,,2v7[8:1],,,,6,,,,
6b,,,,5,,4,,3,,,3,4,,4,,
6,,,,4,,6,5,7bv2[8:1],,,,3,,,,
1b,,,3,8,5,6,4,8h[16:3],,,5,6,4,5,3,
8h[16:4],,,,4,6,4,5,4h[16:3],,,5,6,7,2,3,
4/6bv5[8:1],,,,3bv2[8:1],,,,8bv7[8:1],,,,4bv5[8:1],,,,6b,,6,,7b,,7,,2b/6,,
{24}1,8,7,5b,,,2,3,4,
{16}5/6b-8[8:1],,,,4-2[8:1],,,,8-4[8:1],,,,1,,,,3-1[8:1],,,,5-7[8:1],,,,1V73[16:4],,,,6,,6,,
6v4[8:1],,,,3-7[8:1],,,,8v2[12:1],,,,2,,,,3v5[8:1],,,,6-2[8:1],,,,1v7[12:1],,,,7,,6,,
8b/5h[16:3],,,1,2,3,7,5,8h[16:3],,,3,7,4,6,5,
8h[8:2],,,,5,6,5<8[8:1],6,4,,,2,3,4,7,6,5/2v5[8:1],,1,,7<4[8:1],,8,,3v1[8:1],,2,,6,,7,,7,,1,8,2,7,3,6,4v6[8:1]/5-1[8:1],,,,,,,,
3b-7[8:1],,,,6-3[8:1],,,,8-3[8:1],,,,4,,5,,6-2[8:1],,,,3-6[8:1],,,,1-6[8:1],,,,5,,4,,3b-6[8:1],,3,,7-4[8:1],,7,,2b<7[8:1],,2,,6,,6,,8b,7,1,6,3b,5,2,2,4b,,52,,6b,,81,,
7bs3[6:1]/2,,,,,,4,,4,,3,,2-5[8:1]/5,,,,7s3[6:1],,,,,,4,,4,,4,,5-2[8:1],,6,,7s3[8:1],,,,,,4,,4,,3,,2-5[8:1]/5,,,,7-3[8:1],,,,,,4,,4,,8,,
{24}2,3,4,7,6,5,
{16}2bpp6[16:5],,,,,,6,,7,,8-4[8:1],,4,,3,,2pp6[16:5],,,,,,6,,7,,8v5[8:1],,4,,3,,2v4[8:1],,,,8,,7,,6v5[8:1],,,,2,,3,,4v4[8:1],,5,,6,,7,,
{12}8b,3b,2b,6b,1b,4b,
5<8[8:1]/3,3,3,53,,,6<1[8:1]/4,4,4,64,,,7>2[8:1]/5,5,5,75,,,8>3[8:1]/6,6,6,86,,,4>1[8:1]/7,7,7,47,,,3>8[8:1]/6,6,6,36,,,2<7[8:1]/5,5,5,2/5p4[8:2],,,1b,,2b,,3b,,
{12}5<7[8:1],4,7,{16}3qq4[16:5],,2,,8,,7,,6,,5,,
{12}4>2[8:1],5,2,{16}6pp5[16:5],,7,,1,,2,,3,,4,,
{12}2-7[8:1],5,4,{16}7b,,,,{12}3-6[8:1]/6-3[8:1],4,5,{16}3b/6b,,,,
{12}15,2,3,48,7,6,5bs1[8:1]/4bz8[8:1],,,,,,
{24}27,,,1,2,3,4h[24:4],,,1,8,7,6h[24:4],,,2,3,4,5h[24:4],,,8,7,6,5h[24:4],,,4,3,2,1,,,3,2,1,8,,,2,1,8,7,,,1,8,7,6h[8:2],,,,,,1-5[8:1],2,3,6,5,4h[24:7],1,,,,,,8-4[8:1],1,2,5,6,7,8,,,,,,3<6[8:1],,,2,,,8p1[6:1],,,1,,,5,,,,,,
{16}4,3,2,,
{24}7,6,5,8,7,6,4,5,6,2,3,4,7,6,5,4,,,
{16}1,1,8,,
{24}2,3,4,1,2,3,5,4,3,7,6,5,2,3,4,5/6h[8:2],,,
8,,,1,,,37,,,4,5,3,4v1[8:1]*p8[8:1],,,26,,,,,,,,,
3v8[8:1]/7,,,8,,,3,,,7,6,5,1,,,2,,,3-7[8:1]/7-3[8:1],,,46,,,
{16}7bpp4[8:3],,,,,,4,,3-7[8:1],,,,3b,,,,6bp4[16:5],,,,,,2,,3-7[8:1],,,,3b,,,,
6b-4[8:1],,,,,,1,,2-6[8:1]/4v5[8:1],,,,,,,,7-3[8:1],,7,,5,,4,,{24}2b,1,2,1,2,1,2v7[8:1],,,4,,,
{16}6h[8:2]/2b,,,,1,,3,,4-8[8:1]/5-8[8:1],,,,4b,,,,7bv2[8:1]/2b,,,,1,,3,,4-1[8:1]*-8[8:1],,,,4b,,,,
2bv3[8:1]/5v6[8:1],,,,,,,,8b-4[8:1]/4-8[8:1],,,,,,,,
2h[8:4]/6b,,,,8,,,,4b-1[8:1],,,,7b-4[8:1],,,,2-7[8:1],,,,5-2[8:1],,,,8-5[8:1],,,,3-8[8:1],,,,6-3[8:1],,,,1,,,,
4v1[8:1],,5,,7<4[8:1],,6,,2-6[8:1],,1,,5>2[8:1],,4,,7-3[8:1],,7,,8-4[8:1],,8,,1-5[8:1],,1,,2,,2,,
{24}5,6,7,81,2,3,5,6,7,81,2,3,
{16}6,5,7,4,6,3,7,7,
{24}4,3,2,18,7,6,4,3,2,18,7,6,
{16}5v4[8:1]/1v8[8:1],,,,1,,,,
{24}5,6,7,81,2,3,5,6,7,81,2,3,
{16}6,5,7,4,6,5,7,7,
{24}4,3,2,18,7,6,4,3,2,18,7,6,
{16}5-1[8:1]/1-5[8:1],,,,1,,,,
{24}8,7,6,54,3,2,8,7,6,54,3,2,
{16}6b,5,4,3,6,5,4,3,
{24}5,6,7,81,2,3,5,6,7,81,2,3,
{16}7b,8,1,2,7,8,1,2,
7v4[8:1],,7,,3v8[8:1],,3,,5<8[8:1],,5,,1,,1,,8h,8h,8h,8h,8h,8h,8h,8h,
8bv1[8:1],,1<6[8:1],,2b,,3,,
{24}3h[24:4],,,5,6,7,84,,,5,6,7,84,,,6,7,8,15,,,6,7,8,15,,,6,7,8,2/1<6[8:1],,,3,,,
{16}1bv4[8:1],,3,3,1b,,2,,
{24}5h[24:4],,,4,3,2,15,,,4,3,2,15,,,3,2,1,84,,,3,2,1,84,,,3,2,1,7/8>3[8:1],,,6,,,
{16}8bv5[8:1],,6,6,8b,,7,,
{24}7b,6,5,3,2,1,7b,6,5,3,2,1,8b,7,6,4,3,2,8b,7,6,4,3,2,7b,6,5,4,3,2,7b,6,5,4,3,2,7,,,7,,,6,,,6,,,
{32}1,2,3,4,8,7,6,5,2,3,4,5,7,6,5,4,1,2,3,4,5,6,7,8,1,2,3,4,5,6,7,8,1s5[8:1]*s5[8:1],,,,,,,,8b,,
