&title=ikasu
&artist=ak+q
&first=1.381
&lv_5=13+
&des_5=Hsuan Yu
&inote_5=
(95){4},{16},,,,,,,,,,,,3,
6,7,8,1,2,3,6,7,8,1,2,3,7,6,5,
4,3,2,7,6,5,4,3,2,7,3,7,4,7,5,7,
3,4,{8}3,{16}6,5,4,3,{32},6,2,3,{16}4,6,5,6,8,7,
6,3,2,1,8,7,6,3,2,1,8,7,6,2,3,4,
5,6,7,2,3,4,5,6,7,2,5,2,4,2,3,2,
5,2,7,2,6h[16:3],4,4,3h[16:3],5,5,6h[16:3],4,4,4,,,5<8[8:1],
6,5,4,3,2,1>4[8:1],2,1,8,7,6,5-8[8:1],6,5,4,
3,2,1-4[8:1],2,1,8,7,6,5-2[8:1],6,4,6,3,6,4-7[8:1],3,
5,3,6,3,4>1[8:1],5,6,7,4,{32}7,6,{16}5,3,6,3,7,{32}3,5,
{16}4>1[8:1],3,4,5,6,7,8<5[8:1],7,8,1,2,3,4-1[8:1],3,4,5,
6,7,8-5[8:1],7,8,1,2,3,4-8[8:1],6,3,6,2,6,1-5[8:1],3,
8,3,7,3,6h[8:1],7,8,3h[8:1],2,1,{8}5-1[8:1],{16},5h[32:1],{32}4,6,4,6,
{8}4h[8:1],6h[8:1],{32}1<6[8:1],1,2,3,{8}6>3[8:1],{16},,5h[32:1],4h[32:1],{8}2>5[2:1],{16}2,1,
8,7,{8}6,{16},,3,2,{8}1>4[2:1],{16}1,8,7,6,{8}5,
,7,{4}8<5[8:1],{16},2,{8}1>4[8:1],{16},,,7,
8-4[8:1],,,,,2,{8}1-5[8:1],{16},,,4,6<1[4:1],7,6,5,
4,3,{8}2,5,4,{16}3>8[4:1],2,3,4,5,6,{8}7,
{16}7,6,5,4,3>8[8:1],,,3,4,5,{8}6>3[8:1],{16},2,1,8,
7-4[16:1],,,2-5[16:1],,,{8}6-1[8:1],{16}8,6,4,2,{4}7<4[4:1],
{8},2,{16}1,3,5,7,2>5[4:1],{64},,,,,,,,1,8,,,,,,,,,,,{8}7,
{16}2,3,4,5,6,7,6,5,2,3,4,7,6,5,2,3,
4,5,6,5,4,{32}3,4,{8}5h[16:3],{16},6,,,4<7[8:1],,,5,
4,3,{8}2>5[8:1],{16},6,{32},,7,8,{8}1<6[8:1],{16}5,4,3,2,{8}1h[16:3],
{16},5,,3,2,1,8,1,2,3,{32}7,6,{16}5,8,{32}2,3,{16}4,4,
{32}8,7,6,5,4,3,2,1,2,3,4,5,{8}6>3[8:1],{16},,,,7b,6b,,5b,
,3b,4b,3b,,5b,,6b,{8}5b,{16}4,3,2,7,6,5,
2,3,{8}4,{16}2b,,,3b,,6b,{8}5b,4b,3b,
4b,{16}4,5,4,3,{8}4,5,6h[8:1],{4}5>2[4:1],
{8},1h[4:1],,8,{4}7<4[4:1],{8}3,2h[4:1],
,5,{4}6<1[4:1],{8},5h[16:3],{16},4h[16:3],,,3>8[2:1],
6,5,4,3,2,7,6,5,4,3,2,{8}1,5h[8:1],
4h[8:1],6,5<8[4:1],4,{4}5,{8}1>4[4:1],2,
1,{16}5,6,7,,,8>3[4:1],,8h[16:1],{8}7,8,7,
{16}6-3[4:1],,,6,7,8,{8}1,2-7[16:3],3,{16}2,,,6-3[16:3],
,,{8}6,{16},5,,,5>2[16:3],,,2<7[16:3],,,{8}7<4[16:3],
{16},3,2,1,8,,,7,,,{8}5h[8:1],4h[8:1],3,
{4}2-6[8:1],{16}5,{32}4,3,2,1,8,7,4-8[8:3],5,6,7,4,3,2,1,{8}6,2-6[8:3],
4,2,8,4,3<6[8:1],{16}3,2,1,8,{8}7>2[8:1],
{16}6,5,{8}4-8[2:1],3,{16}4,5,6,7,1,2,3,4,5,1,
{8}2>5[8:1],{16}3,2,1,8,{8}7>2[8:1],{16}6,5,{8}7,4-8[8:3],{16}3,4,
5,6,{8}7,{16}1,2,{8}3,{4}2-5[2:1],{16}3,2,1,8,
7,6,2,3,{4}4-7[2:1],{16}4,3,{8}2,6,5,
{32}6,5,4,3,7,6,5,4,8,7,6,5,1,8,7,6,2,1,8,7,3,2,1,8,4,3,2,1,5,4,3,2,
6,5,4,3,{8}7-3[8:7],{24},,,4h[16:1],,5h[96:7],,2h[16:1],,{8}8h[64:11],{16},7h[64:5],{32},2h[64:5],,,6,
5,4,2,1,8,7,6,5b,4h[16:3],,,,,,3h[32:5],,,,,{8}6h[16:3],{16},5h[16:3],{64},,,,,,,,4h[64:49],
{4},,,{64}1,{32}8h[32:5],,,,,{16}7h[16:3],
,,{8}1h[16:3],{16},2h[16:3],,,8h[16:3],,,7h[16:3],,,{8}8h[64:23],
{64},,,,,,,,,,,,,,,7,{16}6h[16:3],,,3h[16:3],,,{8}5h[16:3],{16},4h[16:3],,,{8}6h[8:1],
3h[8:1],7h[8:1],2h[8:1],6h[8:1],2h[64:9],{64},7,{32}8h[32:5],,,,,{16}1h[16:3],
,,{8}6h[32:5],{32},4h[32:3],,,{8}7h[8:1],{16}3h[16:3],,,8h[16:3],,,{8}4h[8:1],
6h[8:1],2h[8:1],{16}8h[16:3],1,1,3h[16:3],7,7,6h[16:3],2,2,4h[16:3],7,7,
5h[8:1],3,3,4,3,3,4,5,6,7,8,1,2h[16:3],7,7,6h[16:3],
8,8,1h[16:3],8,8,7h[8:1],8,1,2h[16:3],4,4,5,6,6,4h[16:3],5,
5,5h[8:1],4,{32}3,2,{16}1h[16:3],8,8,6h[16:3],2,2,3h[16:3],7,7,5h[16:3],2,2,
4h[8:1],6,6,5,6,6,3,3,5h[16:1],4h[16:1],{8}3h[16:1],{16}6h[16:3],5,5,4h[16:3],
5,7,8h[16:3],1,1,2h[8:1],,3,6h[16:3],5,4,3,{32}2-6[16:1],2,2,2,{64}6,3,7,4,8,5,1,6,
{4}2,{8}8b,1,2,7,6,5,
1,2,3,4,{16}6,5,4,3,{8}2h[8:1],4h[8:1],
2h[8:1],{16}1,8,1,2,{8}3h[8:1],{16}8,7,{8}6h[8:1],4h[8:1],5h[16:3],
{16},4,{32},6,5,4,{8}3h[8:1],{16}6,5,3,5,3,5,2,5,1,5,
8,5,1,5,2,5,3,5,3,2,1,8,2,1,8,7,
5,3,5,3,6,3,7,3,8h[16:3],,,2h[8:1],{32},,8,1,{16}7,6,
,5,,4,4h[4:1],5,5,5,5,5,{32}2,3,{16}2,4,{32}5,4,{16}6,7,
5h[4:1],4,4,4,4,4,{32}6,5,{16}7,1,7,{32}2,1,{16}2,7,{32}2,1,{16}2,7,
2,{32}7,8,{16}2,7,2,{32}5,4,{16}5,3,{32}1,8,7,6,5,4,1,2,{16}3,4,{32}5h[8:1],4,{16}3,
4,5,{32}4,5,{16}3,2,4,5,6,3,6,2,6,5,{32}3,4,{16}2,6,
4,3,2,{32}5,4,{16}6,7,8h[8:1],1,3h[8:1],6,4,{32}2,3,{16}1b,7,{32}5,3,{16}1b,
7,5,{32}2b,,,8b,,,{16}6b,{32},4b,,,8b,7,8,7,1b,2,1,2,5b,6,5,6,2b,4,6,8,
7b,5,3,1,8b,2,4,6,{4}8b,{8},1b,,2,
{4}1,{8}7,8,,4,{4}3,
{8}5,6-3[8:11],
E
