&title=epitaxy
&artist=かめりあ
&first=0
&des=結晶
&lv_5=14+
&inote_5=(183)
{1},
{16}1h[4:7]/8,,,,,,,,,,,,,,E6,E5,
{16}E4,,,,,,,,3,,,,3<2[4:5],,,,
{16},,,,,,,,,,,,,,E4,E5,
{16}E6,,,,,,,,5,,,,6h[4:7]/4,,,,
{16},,,,,,,,,,,,,,B5,C,
{16}B1,,,,,,,,8,,,,17,,,,
{16}2h[8:3]/6,,,,,,4h[8:3],,,,,,6<4[1:1],,,,
{16},,,,,,,,,,,,,,,,
{16}6h[8:5],,,,5,,5,,,,8,,8,,,,
{16}7,,7,,5h[4:1],,,,8h[4:1],,1,,2h[4:1],,,,
{16}4h[8:5],,,,5,,5,,,,3,,,,5/3h[8:3],,
{16},,,,1,,,1,,,1,,28,,,,
{16}47,,,,3/4,,4,,2/4,,4,,1/4,,4,,
{16}25,,,,65,,5,,75,,5,,8/5,,5,,
{16}7,3,6,3,5,3,4,3,7,1,7,2,7,3,7,4,
{32}8x,1,2,3,4,5,6,7,8,1,2,3,4,5,6,7,{16}8x/3x-7b[8:1],,,,,,,,
{32}1b>7[4:3]/5bqq8[8:6],,,,{16},,,,,,,,,,,,,,
{16},,,,3,,4,,8,,7,,{32}2bqq4[8:7]/5b<3[8:7],,,,,,,,
{16},,,,,,,,,,,,,,,,
{16},,,,4,,5,,1,,8,,{32}3bqq5[8:7]/6b<4[8:7],,,,,,,,
{16},,,,,,,,,,,,,,,,
{16},,,,4,,6,,2,,8,,3b^8[8:1]/7b,,,,
{24}7x,6x,5x,4x^7[8:1],,,,,,1x,2x,3x,4x^1[8:1],,,,,,1x,8x,7x,6xv5-3b[16:6],,,
{16},,,,,,,,2x-6[8:1],,,,8,,,,
{32}5bqq8[4:3]/7b,,,,{16},,6,,,,,,,,6,,,,
{16},,,,6,,5,,1,,2,,{32}7bpp5[8:7]/4b,,,,,,,,
{16},,,,3,,,,,,,,3,,,,
{16}2/4h[4:1],,,,3,,5,,1,,7,,{32}8b/4bpp1[32:21],,,,,,,,
{16},,,,7,,,,,,,,6,,,,
{16}2h[4:1],,,,5,,5,,3,,3,,4pp1[4:3],,,,
{16},,,,3,,,,,,,,2,,,,
{16}8w4[8:4],,,,,,,,,,,,,,,,
{16}26,,,,,,4,,,,,,5,,,,
||
wocao
{96}7,,,,,,,,,,,,,,,,,,,,,,,,5,,,,,,,,,,,,,,,,,,,,,,,3,,,,,,,,,,,,,,,,1,,,,,,,,,,,,,,,,2,,,,,,,,,,,,,,,4,,,,,,,,,,,,,6,,,,,,,,,,8,,,,,,,,,,,1,,,,,,,,,,,3,,,,,,,,,,,1,,,,,,,,,,8,,,,,,,,7,,,,,,,,,8,,,,,,,,1,,,,,,,2,,,,,,,,1,,,,,,,,8,,,,,,,,1,,,,,,8,,,,,,1,,,,,,8,,,,,,2x,,,,,,7x,,,,,,3x,,,,,,6x,,,,,,{4}1b,
{16}4x/6x,,6,,24,,2,,47,,7,,41,,1,,
{16}5x/3x,,3,,75,,7,,52,,2,,58,,8,,
{16}5,7,5,7,4,8,4,8,3,7,2,6,1,5,8q6[8:2],4q2[16:3],
{16},,,,,,,,Cf,,,,2x/6x,,,,
||
break应该在48还是26?
{16}8b/4b,,,,2,,6,5,7-4[8:1],5,6,,1h[8:3],,,,
{16},,8,,2/7h[4:1],,,,5-1[8:1],6,5,,8,,,,
||
似乎只有这里是双押启动
想去掉
也有点想补正拍
||
{16}26,,,,7,,3,4,2,4,3-6[8:1],,,,36,,
{16}26,,,,7,,3,4,2,4,3-6[8:1],,,,6,,
{16},,18,,27,,,,56,,56,,7,,3,,
{16}15,,,,7,,3,4,2-5[8:1],4,3,,8h[8:3],,,,
{16},,1,,7/2h[4:1],,,,4-8[8:1],3,4,,1,,,,
{16}2x,3x,4x^1[8:1],,7x,,7x,6x,5x^8[8:1],,2x,,2x,3x,4x,,
{16}1,,15,,4z8[32:9],,3v6[32:5],,,,,,,,,,
{16}47,,,,3,,7,8,6-1[8:1],8,7,,4h[8:3],,,,
{16},,1,,3/7h[4:1],,,,5-1[8:1],6,5,,8,,,,
{16}42,,,,6,,2,1,3,1,2,,7-3b[8:1],8,6,1,
{16}7b>6[8:3],,,,5h[2:1],,,,,,,,{48}A8f,D1/E1,A1/B1,D2/E2,A2/B2,D3/E3,A3,,,,,,
{16}7,,7,5,6x,,1,,2,,2,4,3x,,6bx,5bx,
{16}7b,,6b/8b,,1bh[4:1]/5b,,,,6,,6,5,7bh[384:1],,2,1,
{16}3-5[8:1],,3,,3/6-3[8:1],,6,,6/2-6[8:1],,2,,2/7,,7,,
{16}7,8,6,1,5,2,4-1[8:1],3-6[8:1],,,,,,,,,
{32}8,7,6h[32:10],,,,2,3,4h[32:6],,,,,,,,8,7,6h[32:10],,,,2,3,4h[32:6],,,,,,,,
8,7,6h[32:10],,,,2,3,4h[32:6],,,,,,,,8^5[32:4],,,,,,,,1V73[4:1]/8V62[4:1],,,,,,,,
{16},,,,A2/D3f/A3/E3,,,,8x^5[8:1],,5,,8,,{24}3b,2x,1x,
{16}8xh[4:1],,4,,4b-8b[8:1],,4-2[8:1],,4pp6[32:5],,,,,,,,
{32}1,2,3h[32:10],,,,6,5,4h[32:6],,,,,,,,1,2,3h[32:10],,,,6,5,4h[32:6],,,,,,,,
1,2,3h[32:10],,,,6,5,4h[32:6],,,,,,,,1-5b[8:1],,,,,,,,8bx/1bx,,,,,,,,
{16},,A8,B8,A1,E2,A7,E7,3x,,B5,A5,E4,A4,E7,A6,
{16}C,,8x,,7xv6-4-1[8:3],,5xV38b[4:1],,,,,,,,,,
{16}7-4[8:1],,3-8[8:1],,7,,3,,{32}5bx,6,7h[32:10],,,,8,1,2h[32:6],,,,,,,,
{32}5b,6,7h[32:10],,,,1,2,3h[32:6],,,,,,,,5b,6,7h[32:10],,,,2,3,4-6-2-8[32:12],,,,,,,,
{16}7-3b[8:1],,,,,,,,1x^4[8:1],,4,,1,,{24}6b,7x,8x,
{16}1xh[4:1],,5,,5bp1b[8:1],,5^8[8:1],,5qq4[32:7],,,,,,,,
{32}8b,7,6h[32:10],,,,4,3,2h[32:6],,,,,,,,8b,7,6h[32:10],,,,3,2,1h[32:6],,,,,,,,
8b,7,6,,,,2b,1,8,,,,4b,3,2,,,,6b-8b[32:3],5-7[32:2],4,,,,,,,,,,,,
{32}1b,2,3h[32:10],,,,5b,6,7h[32:6],,,,,,,,1b,2,3h[32:10],,,,6b,7,8h[32:6],,,,,,,,
1b,2,3,,,,7b,8,1h[32:4],,,,,2bx/8bx,3x/7x,4x/6x,5xp4[4:1],,,,,,,,,,,,,,,,
{16}1>7[1:2],,,,,,,,,,,,,,,,
{16}E5,,,,,,,,,,,,,,,,
{16}2>7[4:8],,,,,,,,,,,,,,,,
{16}C,,,,,,,,,,,,,,,,
{16}3<7[8:13],,,,,,,,,,,,,,,,
{16}E1,,,,,,,,,,,,,,,,
{16}1h[8:5],,,,,,5h[4:1],,,,,,3,4,2,4,
{16}3,5,4,6,5-2b[8:1],7,5,6,5x-8[16:2],,,,,,,,
{32}1xqq4[8:6]/7x,2x/6x,3x>5[32:22]/5x,,{16},,,,,,,,,,,,,,
{16},,,,3,,7,,1,,5,,{32}2x/6bx,3xqq7b[32:29]/7bx,4xqq6[32:28]/8bx,5x/1bx,,,,,
{16},,,,,,,,,,,,,,,,
{16},,,,6,,4,,2,,8,,{32}7x/2x,6xqq8[32:18]/3x,5x/4x,,,,,,
{16}1b,,1,,1,,1,,2,,2,,2,,2,,
{16}35,,3,,46,,6,,25,,2,,47,,7,,
{16}2,1,2,1,3,8,3,8,4,7,4,7,5,6,4,5,
{16}3,4,3,4,3,4,2,5,3,4,1,6,3,4,8,7q1[16:23],
{16}3q5[8:11],,,,,,,,,,,,,,,,
{16},,,,,,,,,,,,,,,,
{16}4,5,4,5,3,6,3,6,2,7,2,7,1,8,1,8,
{32}2-7[8:1],3,4,5,6-3[8:1],7,8,1,{16},,,,Cf,,,,2x/6x,,,,
{16}8b-4[8:1],4,7,5,8,,1,1,5,2,4,3,6,1,5,2,
{16}7-4[8:1],8,6,1,7,,3,3,1,8,7,6,8,1,2,3,
{16}6-8[8:1],5,7,5,6,,1,1,5,2,4,3,5,4,6,5,
{16}7-4[8:1],8,6,1,7,,2,2,6x^3b[32:5],3x,7x,2x,,,,,
{16}1x-6[8:1],2x-6[16:1],3x,,{16}1bx/2bx,,,,4,7,5,6,3,8,4,7,
{16}2-5[8:1],1,3,8,2,,6,6,8,7,2,5,1,6,3,4,
{32}2,,1,,2,,1,,{16}3,6,4,5,{32}8,,7,,8,,7,,{16}3,6,4,5,
{32}3bx/6bx,2bx/7bx,1bxh[32:6]/8bxh[32:6],,,,,,{16},,3qq1[16:3],6pp8[16:2],4x,5x,,,,,,,
{16}2x-6[8:1],1,3,1,2,,8,8,4,6,5,7,3V57^6V82[16:9],6,5,7xh[16:9],
{16},,,,,,,,,,,,5,3,5,3,
{16}7-4[8:1],,2-6[8:1],,7,,2,,8b,,,3b/1b,,,6bV48-3[16:7]/5b,,
{16}4xh[4:3],,,,,,,,,,,,{32}
2bx,1bx,8bx,7bx,
6bx,,,,
{16}3,4,3,4,2,5,1,8,4,6,3,5,2,7,4,5,
{16}2,1,3,5,4,6,8,7,1,4,3,7,5,6,1,8,
||
不想动这个了
和一副也能有个照应
{16}2-5[8:1],,2,,8-4[8:1]/2,,8,,8/1-5[8:1],,1,,1/7-4[8:1],,7,,
{16}7/8b>6b[8:2],,,,,,,,7-3[8:1],,,,Cf,,,,
{16}8x/2x-4[8:1],,{24}7,6,5,{16}2,,8,,7-5[8:1],,{24}2,3,4,{16}7,,1,,
{16}2h[4:1],,{24}7,6,5,{16}4x-7[8:1],,3,,2x-6[8:1],,1,,8x,,,,
{16}1x/7x-3[8:1],,{24}2,3,4,{16}7,,1,,2-6[8:1],,{24}7,6,5,{16}2,,8,,
{16}7h[4:1],,{24}2,3,4,{16}5x-2[8:1],,6,,7x-3[8:1],,8,,1x,,,,
{16}1x^4[8:1],,{24}4,5,6,{16}1,,8,,7-3[8:1],,{24}4,3,2,{16}7,,8,,
{16}1h[4:1],,{24}4,5,6,{16}7x-4[8:1],,8,,2x-6[8:1],,1,,6x,,,,
{24}8b,7,6,5,4,3,2,1,8,7b/2b,3,4,5,6,7,8,1,2,{16}3bq8[4:1]/6bp1[4:1],,,,
{16},,,,,,,,2-5[8:1]/7-4b[8:1],,,,,,,,
{16}3x-7[8:1],,{24}8,7,6,{16}3,,4,,1x^4[8:1],,{24}5,6,7,{16}1,,8,,
{16}7h[4:1],,{24}5,4,3,{16}2x-5[8:1],,1,,8x-4[8:1],,7,,4x,,,,
{16}6x-2[8:1],,{24}1,2,3,{16}6,,5,,8x^5[8:1],,{24}4,3,2,{16}8,,1,,
{16}6xv7-1b[4:1]/2bxv3-5[4:1],,,,,,,,,,,,Cf,,,,
{16}24,,24,,35,,35,,46,,46,,57,,57,,
{16}48,,37,,26,,15,,48,,15,,26,,37,,
{16}4,8,5,7,3,8,4,7,2,8,3,7,1,8,2,7,
{16}8,8,1,7,8,8,2,6,8,8,3,5,2h[4:8]/6h[4:8],,,,
E
