&title=ブレインロット
&artist=東京真中
&first=-0.02
&des=RaveNine
&lv_5=13
&inote_5=(135)
{8},
{16}2h[2:1]/4h[8:5],,,,,,,,,,,,,E4,,,6h[2:1]/4h[8:5],,,,,,,,,,,,,B5,,,1h[2:1]/7h[8:5],,,,,,,,,,,,,Ch[16:3],,,6>3<6[8:3],,,,,,,,1,,,,
{8}2h[4:1]/8,,4<7[8:1],2,3,,5>2[8:1],8,7,,6>3[8:1],5,2<7[8:1],1,5-1[8:1],,B2,,
{8}5>2[8:1],7,6,,4<7[8:1],1,2,,3<6[8:1],4,7>2[8:1],8,4q5[4:1],3,E8,,
{8}6>3[8:1],6,2<7[8:1],2,5>2[8:1],5,1<6[8:1],1,4>1[8:1],4,8<5[8:1],8,2-6[8:1],2,4>5[2:1],4,1,,,,,
{8}3<6[8:1],2h[8:3],,,7>2[8:1],6h[4:1],,,,3b/7b,,
{8}2-4v5-7b[8:8],,4h[4:1],,,,6,,,,8,,1w5[8:1],5,,,
{8}7-5v4-2b[8:8],,5h[4:1],,,,3,,,,1,
{8}8q5[4:1],1>4[8:1],2,,,
{8}6-4[8:1],,3V57[4:1],,2,,1,1h[4:1],,8,,8,1,3q4<2[1:1],4,5h[8:9],,,,,,,,,,,,,,,,,,
{8}3-1[8:1],,4-8[8:1],,5-7[8:1],,1,,3-1[32:3],4-8[32:3],5-7[32:3],,,1,2h[4:1],,{8}6-8[8:1],,5-1[8:1],,4-2[8:1],,8,,6-8[32:3],5-1[32:3],4-2[32:3],,,8,7h[4:1],,3<6[8:1],,7>2[8:1],,4q5[4:1],,6,,8<5[8:1],7,3>8[8:1],2,4,5<4[2:1],6,7,,,,,{8}6>3[8:1],7h[8:3],,,2<7[8:1],3h[4:1],,,,6b/2b,,
{8}3<6[8:1],2,1-5[8:1],2,3<6[8:1],2,1,2h[4:1],,8,8,
{16}1,,7,2,,6,3,,45,,
{8}6>3[8:1],7,8-4[8:1],7,6>3[8:1],7,8,7h[4:1],,1,1,
{16}8,,2,7,,3,6,,54,,
{8}2>5[8:1],1,8-4[8:1],1,2<5[16:3],3,4,2h[4:1],,4,4,
{16}1,,1,7,,7,1>8[2:1],,2,,3h[8:5],,,,,,,,,,
{8}1>4[8:1],7h[8:3],,,5<8[8:1],3h[4:1],,,,2b-6[32:3]/6b,,Ch[4:1],,
{8},
{8}1,2/4v5[8:1],,7h[32:1],,6>5v4>3[16:3],,2h[32:1],,1<6[8:1]*>3[8:1],8,,,
{8}5,64,3,24,6v5>4[8:1],,3h[32:1],,2v3-5[16:3],,6,7,8,4,3,2,Cf,,18,18,
{8}7/5v4[8:1],,2h[32:1],,3<4v5<6[16:3],,7h[32:1],,8>3[8:1]*<6[8:1],1,,,
{8}4,35,6,75,3v4<5[8:1],,6h[32:1],,7v6-4[16:3],,
{8}2,2,3>8[8:1],8<5[8:1],4,4z8[1:1],,,1,,,,2,,,,3,5-8[8:1],4-1[8:1],,,,6-8v1-3[1:1],,3,,,,4,,,,5,,6>4[8:1],6,3pp6[8:6],,7h[1:1],,,,,,,,5h[2:1],,,,4<7[8:1],8,1qq6[1:1],2pp5[8:7],,,,,,,,,,,,,,,,,,
{8}4h[8:1]/6h[8:1],,3h[8:1]/5h[8:1],,4h[8:1]/6h[8:1],,2-5-8[4:1]/7-4-1[4:1],,,,,
{16}2,2,4,4,5,5,7,7,
{8}3<6[8:1],2,1p5[8:1],2,3<6[8:1],2,1,2h[4:1],,
{16}8,,37,,4,6,5<8[8:1]*>2[8:1],,7,,,,,,
{8}6>3[8:1],7,8q4[8:1],7,6>3[8:1],7,8,7h[4:1],,
{16}1,,62,,4,5,3,,4,,1>8[2:1],,2,,3h[8:5],,,,,,,,,,1>4[8:1],,7h[8:3],,,,,,5<8[8:1],,3h[4:1],,,,,,,,2b/6b,,,,
{16}4x<7[8:1],,3,,1-5[8:1],,2,,4<7[8:1],,3,,1,,2h[4:1],,,,8,,37,,6,6,4>1[8:1]*<7[8:1],5,3,,,,,,
{16}5>2[8:1],,6,,8-4[8:1],,7,,5>2[8:1],,6,,8,,7h[4:1],,,,1,,62,,3,3,5<8[8:1]*>2[8:1],4,6,,,,,,
{8}7<4[8:1],8,1-5[8:1],8,7>4[16:3],6,5,7h[4:1],,1,26,
{16}3,3,5,5,2,,4-7-1-5[2:1],,5,,6h[8:5],,,,,,,,,,
{8}4<7[8:1],3h[8:3],,,8>3[8:1],7h[4:1],,5?v2b[8:1]/7?-2b[8:1],
