&title=Invisible Date
&artist=sweet ARMS
&first=0
&des=Himekawa Yoshino
&lv_5=13
&inote_5=(184){1},
{32},{16},,,,,,,,,,3,,3h[4:1],,,,
{16}4-8[8:10],,,,,,,,,,,,,,,{32},
{16},,,,,,,,,,,,1,,1h[4:1],,
{16},,7-3[4:5],,,,,,,,,,,,,,
{32},{16},,,,,,,,,,,2,,2,,
{16}4h[4:1],,,,5-1[4:5],,,,,,,,,,,,{32},
{16},,,,,,,,,,,,,,,8,
{16},8h[4:1],,,,2>5[8:3],,,,,,,,,,{32},
{16}6b>7[16:19],,,,,,,,,,,,,,,,{32},
{16},,,,,,,,,,,,,,6,5,
{16}6h[8:3],,,,,,5h[4:1],,,,4h[4:1],,,,3V51[8:5],,
{16},,,,,,,,,,,,,,,,
{16}28,,2h[4:1],,,,1h[4:1],,,,8h[4:1],,,,7<3[8:3],,
{16},,,,,,,,2,,,,,,3,4,
{16}3h[8:3],,,,,,4h[4:1],,,,5h[4:1],,,,6b,,
{16},,,,3,4,3,4,3,,,,6,5,6,5,
{16}6h[4:1],,,,8,,,,2h[4:1],,,,4,,,,
{16}6,,8,,71,,,,4<7[8:1]/5>2[8:1],,,,,,,,
{16}18,,18,,27,,27,,36,,36,,4,5,4,5,
{16}4w8[8:1],,,,,,,,5w1[8:1],,,,,,,,
{16}3-5[8:1],,,,5,,,,7-5[8:1],,,,5,,,,
{16}8>4[4:1],,,,4>8[4:1],,,,7,,,,5,,,,
{16}6-4[8:1],,,,4,,,,2>4[8:1],,,,4,,,,
{16}1<5[4:1],,,,5V71[4:1],,,,2,,,,4,,,,
{16}3<5[8:1],,,,5,,,,7<5[8:1],,,,5,,,,
{16}8V24[4:1],,,,4V28[4:1],,,,7,,,,5,,,,
{16}6-3[8:1],,,,1,,,,2-7[8:1],,,,5,,,,
{16}6pp5[8:3]*pp4[8:3],,,,,,,,,,,,3,,3,,
{16}1,,2-4[8:1],,,,8-2[8:1],,,,6-8[8:1],,,,4-6[8:1],,
{16},,2-4[8:1],,,,8z4[4:1],,,,,,,,,,
{16}3h[8:1],,8-6[8:1],,,,2<8[8:1],,,,4-2[8:1],,,,6>4[8:1],,
{16},,8-6[8:1],,,,2s6[4:1],,,,,,,,,,
{16}7h[8:1],,1>3[8:1],,,,7>1[8:1],,,,5<7[8:1],,,,3<5[8:1],,
{16},,1>3[8:1],,,,7s3[4:1],,,,,,,,,,
{16}4<7[8:1],,,,6,,,,8>3[8:1],,,,2,,,,
{16}5-1[8:1],,,,7,,7,,,,1,,7,,3,,
{16}5h[8:5]/4,,,,,,3h[4:1],,,,,,,,,,
{16}7h[8:5],,,,5,,5h[4:1],,,,,,,,,,
{16}2h[8:5],,,,4,,4h[4:1],,,,,,,,,,
{16}8h[8:5],,,,5,,5h[4:1],,,,,,,,,,
{16}7<3[4:1]/3,,,,,,8q5[4:1],,8,,,,,,6,,
{16},,7,,64,,5,,41,,2,,3,4,3,,
{16}25,,,,65,,74,,,,43,,5V38[4:1]/2V47[4:1],,,,
{16},,,,,,,,{32}1,2,3,4,5,6,7,8,{4}1/5b,
{16}2b/6b,,3b/7b-3[8:1],,,,4-8[8:1]/7,,,,6<4[8:3]/4,,,,5h[2:1],,
{16},,,,,,,,27,,,,,,28,,
{16}37,,4b/6b-4[8:1],,,,2-6[8:1]/6,,,,7<1[8:3]/2,,,,4h[2:1],,
{16},,,,,,,,8,,26,,,,,,
{16}7b/3b,,6b/2b-6[8:1],,,,5-1[8:1]/2,,,,3>5[8:3]/5,,,,4h[2:1],,
{16},,,,,,,,7<5[8:1]/2>4[8:1],,,,2V84[16:5]/7V15[16:5],,,,
{16}27,,,,,,,,3bq7[8:1]/6bp2[8:1],,,,,,,,
{16}1b>4[8:1]/8b<5[8:1],,,,,,,,3,6,3,6,2,7,2,7,
{4}1b/8b,{16}35,,3-5[8:1]/5,,,,3-1[8:1]/7-3[8:1],,,,37,,
{16},,48,,15,,2-5[8:1]/6-1[8:1],,,,26,,,,48,,
{16}37,,2b/6b-1[8:1],,,,3-7[8:1]/6,,,,5<3[8:2]/3,,,,5b/1,,
{16},,4,,4,,,,{32}8,7,6,5,4,3,2,1,8,7,6,5,4,3,2,1,
{16}8b,,,,36,,6,8,7,,2v5[8:1],4,3,,2b/6,,
{16},,8,,84,,3,1,2,,7v4[8:1],5,6,,7b/3,,
{16},,1,,15,,2,4,3,,1w5[8:1],7,8,,1b,,
{16},,,,28,,6,4,5,,1,4,3,,8,5,
{16}6h[4:1],,,,1,,,,26,,,,3qq4[8:3]/5pp4[8:3],,,,
{16}35,,,,,,,,2v5[8:1],,5V31[16:3],,2,,6,,
{16},,,,82,,,,73,,,,6pp5[8:3]/4qq5[8:3],,,,
{16}64,,,,,,,,7-4[8:1],,4V68[16:3],,7,,3,,
{16},,,,27,,,,36,,,,45,,,,
{16}34,,34,,25,,25,,16,,16,,78,,78,,
{16}65,,65,,74,,74,,83,,83,,21,,21,,
{16}45,,45,,36,,36,,27,,27,,81,,81,,
{16}6bpp4[8:11]/3bqq5[8:11],,,,,,,,,,,,,,,,
{16},,,,,,,,,,,,,,,,
{16}24,,3,,3,,28,,7,6,5,,3/1b,,,,
{16}65,,6h[4:1]/5,,,,3h[4:1],,,,8pp7[8:4],,,,5h[2:1],,
{16},,,,,,,,{12}5,,45,,34,,
{16}23,,2h[4:1],,,,7h[4:1],,,,4pp3[8:4],,,,1h[2:1],,
{16},,,,,,,,{12}1,,35,,46,,
{16}57,,7h[4:1],,,,2h[4:1],,,,5h[4:1],,,,4h[4:1],,
{16},,8,7,6,,4,,{12}31,,28,,17,,
{16}8b/6h[2:1],,,,,,,,5h[2:1],,,,,,,,
{16}4h[2:1],,,,,,,,3h[2:1],,,,,,,,
{16}2h[2:1],,,,,,,,4h[2:1],,,,,,,,
{16}5h[2:1],,,,,,,,7,,,,,,{24}2,3,4,
{16}5pp6[1:1]*qq4[1:1],,,,,,,,,,,,,,,,
{16},,,,,,,,,,,,
E
