&title=ディナーベル
&artist=はるまきごはん feat.初音ミク
&first=0
&des=TangScend
&clock_count=4
&lv_5=13+
&inote_5=(146)
{1},
{16}
6xh[1:1],,,E1,,,E8,,,E7,,,E6,,,,
3xh[1:1],,,E2,,,E3,,,E4,,,E5,,,,
6xh[1:1],,,E8,,,E7,,,E6,,,E5,,,,
3xh[4:3],,,E1,,,E2,,Ch[4:1],,,,,,,,
8x/2x,,3,5,4,,6V48[4:1],,7,,1,,2,,,,
17,,6,4,5,,3V51[4:1],,2,,8,,7,,,,
82,,3,5,4,,6V84[4:1],,7,,1,,2,,,,
35,,2,,34,,1,,5,4,5,4,5,4,5,4,
6xh[4:7],,,,5x^4q8^1q5[8:7],,,,,,,,,,,,
,,,,,,,,,,4,,4,,,,
2h[16:3],,,4,3,,8,,4-2[8:1]/7-5^4[8:1],,47,,,,,,
3h[16:3],,,4,2,,8,,1/7-4[8:1],,17,,,,,,
3xh[4:7],,,,4x^5-3^2-7^6-4[8:7],,,,,,,,,,,,
,,,,,,,,,,5,,5,,,,
7h[16:3],,,5,6,,1,,5^7[8:1]/2^5[8:1],,52,,,,,,
6h[16:3],,,5,7V53[8:1],,8,,1-5[8:1],,2,,1,,,,
4xh[4:2]/6xh[4:2],,,,,,,,,,3xh[8:1]/2xh[8:1],,,,7xh[8:5]/1xh[8:5],,
,,,,,,,,,,8xh[8:1]/5xh[8:1],,,,6x/4x,,
B5/3xh[4:2],,,,,,,,,,B4/6xh[8:1],,,,2xh[8:5]/B8,,
,,,,,,,,,,6xh[8:1]/B1,,,,3x/5x,,
8x/2x,,3,5,4,,6^4-8[4:1],5,7,,1,,2,,,,
71,,6,4,5,,3^1-5[4:1],4,2,,8,,7,,,,
64,,7,,65,,8,,64,,7,,4-2[8:1]/5,,5-1[8:1]/4,,
4x-8[8:1],,5x-7[8:1],,4x,,5x,,{32}1x,2,3x,4,5x,6,7x,8,1b/5b,,,,,,,,
{16}
Cf/A3/B3/A7/B7,,,,2^8[8:1],4,2,4,2^3-5[8:1],,5-1[8:1],,2,,7,,
6,,28,,7^1[8:1],5,7,5,7^6-4[8:1],,4-8[8:1],,7,,2,,
3,,,,5^7[8:1]/2^4[8:1],,4^5q4[4:1]/1,,5x/2x,,,,8x,,8x,,
7x/5x,,,,4^2[8:1]/7^5[8:1],,5^4p5[4:1]/8,,4x/7x,,,,1x,,1x,,
2x/4x,,,,2-6[8:1],1,2,1,2^5[8:1],,5-1[8:1],,2,,7,,
6,,28,,7-3[8:1],8,7,8,7^4[8:1],,4-8[8:1],,7,,2,,
1^3[8:1],,7,,1v4[8:1],,6,,1q5[8:1],,8,,1,,7,7,
6,6,5,5,4h[8:1],,3h[8:1],,2,,18,18,2x/7x,,3x/6x,,
4bq8b[8:1]/5bp1b[8:1],,,,A4/A5/D5f,,,,,,,,,,,,
3h[1:1],,,,E5,,,,,,,,E5,,,,
7^5[4:1],,,,5^4p5[2:1],,,,D3,,,,A1,,,,
2^4[4:1],,,,4^5q4[2:1],,,,D7,,,,A8,,,,
7h[16:3],,,6h[16:3],,,5,,1h[16:3],,,2h[16:3],,,3,,
5h[8:3],,,,,,4,3,2h[4:2],,1,,8,,7,,
6h[4:3],,,3,,,4qq5[8:3],,,,,,,,,,
7h[16:3],,,5h[16:3],,,4,,2,,18,18,2x/7x,,3x/6x,,
5^4p5[4:13]/4^5q4[4:13],,,,,,,,,,,,,,,,
,,,,,,,,,,,,,,,,
,,,,,,,,,,,,,,,,
,,,,,,,,,,,,,,,,
6,,,,6,,,,6,,,,6,,,,
6/E4,,,,6,,,,6,,,,6,,,,
6/E3,,,,6,,,,6,,,,6,,,,
6/E2,,,,6,,,,6,,,,6,,,,
6/E5,,,,6,,,,6,,,,6,,,,
6/C,,,,6,,,,6,,,,6,,,,
6/E1,,,,6,,,,6,,,,6,,,,
{128}6h[64:1],5h[128:1],,,,,,,{16},,,{128}3h[64:1],4h[128:1],,,,,,,{16},,,{128}5s1[8:1],4z8b[128:15],,,,,,,{16},,,A5/A4/D5f,,,,
{32}1x/8x,2,3,4h[32:3],,,2x,3,4^1[8:1],5h[32:3],,,3x,,,,8b/4b,7,6,5,,,,,
{32}8x/1x,7,6,5h[32:3],,,7x,6,5<8[8:1],4h[32:3],,,6x,,,,1b/5b,2,3,4,,,,,
{16}4x-7[8:1]/5x-2[8:1],,3/6,,,,,,
{32}8x/1x,7,6,5h[32:3],,,7x,6,5^8[8:1],4h[32:3],,,6x,,,,1b/5b,2,3,4,,,,,
{32}1x/8x,2,3,4h[32:3],,,2x,3,4^1[8:1],5h[32:3],,,3x,,,,8b/4b,7,6,5,,,,,
{16}E2,,E8,,E4,,E6,,
1x/5x,,6,4,5^7[8:1],,3,4,2v5[8:1],,1,,8,,,,
48,,3,5,4^2[8:1],,6,5,7v4[8:1],,8,,1,,,,
35,,2,,34,,1,,35,,2,,5-7[8:1]/4,,4-8[8:1]/5,,
5x-1[8:1],,4x-2[8:1],,5x,,4x,,{32}8x,7,6x,5,4x,3,2x,1,8b/4b,,,,,,,,
{8}E8,E1,E6,E4,B2,B6,,C,A3,D6,D7,A8,A2,5x,4b/6b,,
{16}
Cf/A3/B3/A7/B7,,,,4-2[8:1],5,2-8[8:1],7,4pp6[8:1],,6^4[8:1],,4x,,2,,
3,,17,,5-7[8:1],4,7-1[8:1],2,5qq3[8:1],,3^5[8:1],,5x,,7,,
6,,,,5<1[8:1]/2^4[8:1],,4^5q4[4:1]/1,,5x/2x,,,,8x,,8x,,
7x/5x,,,,4>8[8:1]/7^5[8:1],,5^4p5[4:1]/8,,4x/7x,,,,1x,,1x,,
4x/2x,,,,8^7-5[8:1],1,5-3[8:1],3,8pp2[8:1],,2^8[8:1],,8x,,6,,
7,,35,,1^2-4[8:1],8,4-6[8:1],6,1qq7[8:1],,7^1[8:1],,1x,,3,,
2^4[8:1],,8,,2v5[8:1],,6,,2q6[8:1],,7,,2,,8,8,
7,7,6,6,5h[8:1],,4h[8:1],,3,,21,21,3x/8x,,4x/7x,,
8^5[8:1],,2,,8v3[8:1],,4,,8V64[8:1],,1,,8,,2,2,
3,3,4,4,5h[8:1],,6h[8:1],,7,,81,81,7x-5[8:1]/2x-4[8:1],,4x^5p1b[8:15]/5x^4q8^1b[8:29],,
2b/7b,,,,,,,,,,,,,,,,
,,,,,,,,,,,,,,,,
,,,,,,,,,,,,,,,,
Ch[1:1],,,,,,,,,,,,,,,,
{32}7,6^3[32:111],5^3[16:59],,,,,,,,,,,,,,
,,,,,,,,,,,,,,,,
,,,,,,,,,,,,,,,,
,,,,,,,,,,,,,,,,
{1}
,,,,
E
