&title=7 Wonders
&artist=Sakuzyo
&first=0.08
&des=6 Differ
&lv_5=14+
&inote_5=(168)
{4},,1h[4:1],,
{32}8bp4[1:2],17,26,35,
{1}4p8[8:15],,,
{8},,,2h[2:1],4h[8:3],,,,,,6V82[8:3],,,,3,4,5,7h[8:3],5h[8:3],,,7-3[4:1],,,,
{7},
{8}2,4,1,7,
{56}56,,,,,,
{16}4b-7[8:1],,5,,3,,
{16}3,4,5-8[8:1],,6,,4,,3,4,
{8}5-1[8:1],7,5<8[8:1],6,2b,,1/7-4[8:1],6,
1,
{16}1,2,3/8-5[8:1],,7,,2,,2,3,1-6[8:1]/4-1[8:1],,1,,4b-7[8:1],,,,2b,,,,
2-5[8:1],,5,6,2,,8,7,6/3-6[8:1],,6,7,3,,1,8,
7-4[8:1]/4-8[8:1],,5,,7bw3[8:1],,,,,,,,
{24}1,8,7,6,5,4,
{16}38,7,6,5,4b-7[16:1],,,1b-5[16:1],,,6b<3[16:3],,,,,,4bz8[4:1],,,,,,,,
{8}7h[4:1],,4,,3h[4:1]/5,,6,6,,6,5,7,4,38,
2h[4:1],,5<3[1:1],,6h[4:1],,,5,,4,4,,6,6,4-2[8:1],,6-4[8:1],,8-4[8:1],1,2,3,
5-7[8:1],,3-5[8:1],,
{16}1,,8,8,2,,3,3,6-8[8:1],,,,1-6[8:1],,,,2,,3,3,5,,4,,4-2[8:1],,8-4[8:1],,4,,8,,
1,,6,1,7,,7,1,6,,6,1,5,,53,,7,,5,7,4,,4,7,5,,5,7,3,,26,,2,,7,2,8,,8,2,7,,7,2,
6,3,5s1[4:1],4,7h[8:1],,,,8,7,6,5,
2b-5[8:1],,4,,2,,6,,7,,8<5[8:1],,1,2,8,,3-8[8:1],,4,,3,,5,,6,,
7-4[8:1],,4-8[8:1],,37,,2,,1,,7,,6,,1V74[4:1]/5,26,37,,,,3<8[4:1],,,,8,1,2,3,4,5,
6b-1[8:1],,,,56,,4,,3,,2>5[8:1],,1,8,2,,7-4[8:1],,5,,7,,3,,4,,
5,,6b,,16,27,3/8-4[8:1],,5,,8,,1h[8:1],,3,2,
{24}1h,8h,7h,
{8}3-8[8:1]/6h,4,3,5h[8:1],
{16}1>8[4:1],26,37,4/8,1bs5[4:1]/5,,,,,,7h,,,,64,,3,6,2-5[8:1],,1,,4,,6>3[8:1],,8,,
6,,7p3[8:1],,8,,3,2,1<5[16:3],,,5>1[16:3],,,,,7,,8h[4:1],,,,2,,38,,
7,4,6,5,6,,7<4[16:3],,5>2[16:3],,3>8[16:3],,1<6[16:3],,,,5,,4,,3,,
2-4[8:1],,4<2[4:1],,2,,6b,,,,,,4,,3,5,2,6,1,7,2,8,3,,6V82[2:1],,5bv3[8:3],,
{2},
{16},,,,
4>1[8:1],5,6,7,8,,7q3[8:1],6,5,4,3,,4>1[8:1],5,6,7,8,,7q3[8:1],6,5,4,3,,4,,2,,
1<6[8:1]/5,2,3,4,5,,4-7[8:1],3,2,1,8,,1<6[8:1],2,3,4,5,,4-7[8:1],3,2,1,8,,1,,6,,
5>2[8:1],6,7,8,5,,8q4[8:1],7,6,5,8,,5>2[8:1],6,7,8,5,,8q4[8:1],7,6,5,8,,5,,3,,
2<7[8:1]/6,3,4,5,62,,5-8[8:1],4,3,2,51,,2<7[8:1],3,4,5,62,,5s1[4:1],4,3,2,5/1,,,,,,
38,7,6,5,2h[8:1],,4,5,6,7,3h[8:1],,1,8,7,6,4h[8:1],,5,6,7,8,2,3,4,,7,,
62,3,4,5,8h[8:1],,4,3,2,1,7h[8:1],,8,1,2,3,6h[8:1],,5,4,3,2,7,6,5,,3,,
17,6,5,4,2,,24,5,6,7,1,,18,7,6,5,3,,34,5,6,7,28,3,4,,6,,
57,4,3,2,16,,34,5,6,7,28,,
{24}1p5[1:3]/7,62,5p1[1:3]/3,
{1}4b,,,
{8},,,,,,,
{16}3,4,2,5,1,6,8,7,
{32}1b,2,3,4,5,6,7,8,
{16}5/1h[8:1],,,,
{32}7b/3,6,5,,,,,2b/6,3,4,,,7b/3,6,5,,
{16},,2v7[8:1],,7V13[16:3],,2,,6,,5,,
4b>1[8:1],5,6,7,4b,,7,6,5>2[8:1],,7,,5,,8,7,6,,71,,
{16}6,5,7,4,8,3,1,2,
{32}8b,7,6,5,4,3,2,1,
{16}4/8h[8:1],,,,
{32}2b/6,3,4,,,,,7b/3,6,5,,,1b/6,2,3,,,,,,
{16}5,5,4,6,5,7,
{24}4b<7[8:1],3,2,
{16}1,,4b,,3,4,5-8[8:1],,3,,5b,,
{24}1h,2h,3h,
{16}4-7[8:1],,2,,4b,,1,2,37,6,5,4,2h,8,1,7,
{32}3b,4,5,6,7,8,1,2,
{8}3h[8:1]/7,,
{32}6b/3,5,4,,,,3b/7,4,5,,,,7b/4,6,5,,,,,,
{16}7,,28,,3,4,3,,5,,1b<6[8:1],,6>3[8:1],,1,,,,1b-5[16:1],,,4b-1[16:1],,,6b,,,,,,
6,5,7,4,8,1,7,2,4,3,4,3,4,2,4,2,4>6[4:1],1,4,1,4b,,,,5,,7,,5,6,5,6,
4,7,3,8,2,5,1,6,4,6,2,8,3,5,1,7,
{32}2b,3,4,5,8b,7,6,5,4,,,,
{12}2,2,
{16}5h[24:11],,1h[192:64],,,,,
{192},,,,
{24},26,37,
{16}4h[16:1]/8h[16:1],
{24},37,26,
{16}1h[16:3]/5,,,
{24}6,27,38,
{16}1h[16:1]/4h[16:1],
{24},38,27,
{16}1h[16:3]/6,,,
{24}5,26,37,48,,
{24}2,1,2,1,8h[8:3],,,1,2,3,4h[8:1],,,
{24},73,62,
{16}5h[16:1]/1h[16:1],
{24},62,73,
{16}8h[16:3]/4,,,
{24}3,72,61,
{16}8h[16:1]/5h[16:1],
{24},6/1h,7/2h,8h[16:3]/3h,4h,,,
{96},,
{24}5,47,36,
{16}2h[16:1]/5h[16:1],
{24},36,47,
{16}5-1[16:1]/8,,6b,,,7h[8:1],,
{24}8,16,25,
{16}3h[16:1]/4h[16:1],
{24},25,1h[192:44]/6,7,
{16},
{24},,8,27,36,
{16}4h[16:1]/5h[16:1],
{24},36,7/2h[192:44],
{16}8,,,
{24}1,38,47,
{16}6h[16:1],
{24}5-8[8:1],4,3,2/8,7,6,
{16}5,,2,2,1,
{24}12,83,74,
{16}6h[16:1]/5h[16:1],
{24},74,8h[192:44]/3,2,
{16},
{24},,1,72,63,
{16}5h[16:1]/4h[16:1],
{24},63,2/7h[192:44],
{16}1,,,
{24}8,61,52,
{16}3h[16:1],
{8}4b>6[4:1],,,,
{16},
{24}2,3,4,
{16}5>2[8:1],
{24}1,8,7,
{16}6h[16:1],5,,{24}7,6,5,
{16}4<7[8:1],
{24}8,1,2,
{16}3h[16:1],4,,1-6[8:1],,8,2,1>4[8:1],,3,,1b/7b,,,,
{24}7,6,5,
{16}4<7[8:1],
{24}8,1,2,
{16}3h[16:1],4,,{24}2,3,4,
{16}5>2[8:1],
{24}1,8,7,
{16}6h[16:1],5,,8-4[8:1],,1,6z2[16:3],8,,,6b,,,,,
1,1,4,2,5,5,4,6,5,5,7,7,
{24}1b,2,3,46,,,
{16}8,8,5,7,4,6,3,7,2b,,17,,
6,6,4,4,2,2,8,8,7,1,5,3,8,2,6,4,
{24}8,7,6,2,3,4,7,6,5,1,2,3,
{16}7,4,6,3,
7b-4[8:1],,5,,7,,3,,2,,1>4[8:1],,8,7,1,,6-1[8:1],,5,,6,,4,,3,,
2-5[8:1],,5-1[8:1],,62,,7,,8,,2,,3,,8V25[4:1]/4,73,62,,,,6>1[4:1],,,,1,8,7,6,5,4,
3b-8[8:1],,,,43,,5,,6,,7<4[8:1],,8,1,7,,2-5[8:1],,4,,2,,6,,5,,
4,,3b,,83,72,6/1-5[8:1],,4,,1,,8h[8:1],,4,3,2b/6<1[8:1],,,,6b,,4,5,6,7,84,15,26,73,
{16}4-7[8:1]/8,,6,,24,,
{24}2,3,4,
{16}5-8[8:1],,7,,3/5,,
{24}1-6[8:1],2,3,4-1[8:1],,,1V72[4:1],,,4-7[8:1],,,,,,4b,,,,,,
{16}5-2[8:1]/1,,3,,75,,
{24}7,6,5,
{16}4>1[8:1],,2,,6/4,,
{24}8>3[8:1],7,6,5<8[8:1],,,8,,,5-2[8:1],,,,,,
{24}5b/1,8,7,6,5,4,
{16}1,2,6,7,5,5,8,8,4,3,7,6,2,2,5,5,
{24}1,2,3,5,6,7,1,2,3,45,6,7,2,3,4,56,7,8,
2b,1,3,8,4,7,3,5,2,6,1,7,
{32}8b,7,6,5,4,3,1b,8,7,6,5,4,
{32}2b,1,8,7,6,5,4,3,2,1,8,7,6,5,4,3,2,1,8,7,
{16}6h[16:22],5,4,3,
2h[16:14],,,,,,,,,,,,,,
{24},3,4,
{16}5h[16:5],,
{24},7,8,
{16}1h[16:1],
{24},48,37,
{16}2h[16:1]/6h[16:3],
{24},1,8h[16:3],,5,4h[16:1],
