&title=走れメロンパン
&artist=和泉一舞 (CV:津田美波)/山形まり花 (CV:日高里菜)
&first=0.06
&des=bbben
&lv_5=12+
&inote_5=(170)
{1},,
{4}
1v6[4:3]/7-3[4:3],,,,,,,,
1V35[4:3]*V75[4:3],,,,,,,,
2q6[4:3]/8h[4:4],,,,,,,,
1x-3[4:1]/8x-6[4:1],,,{8},{4}
4x>6[8:7]/5x<3[8:7],,,,,,,,
{8},
3b/5,,,4/6b,,5,5,,
1x-3[8:1]*-7[8:1],,,,5x-7[8:1]*-3[8:1],,,,7xqq4[4:2],,,2,,2,,,
5h[4:1],,4h[4:1],,3h[4:1],,2h[4:1],,1-5[8:1],,7,7,,3,3,,
3xv1[8:1]/7xv5[8:1],,,,5x-8[8:1]/1xpp1[8:1],,,,8x-5[8:1],1,2,3,4,5<8[8:1],,1,
1,,2h[4:1],,3h[4:1],,4h[4:1],,5-1[8:1],,7,7,,
18,27,36,4>5[4:2]/5,,,,4qq5[4:2],,,,,,,,,
81,72,63,5<4[4:2]/4,,,,5pp4[4:2],,,,,,,,,
63,45,,3,3,4,5,6,6,5,4,3,2,1,8,7,6>7[4:3],,Cf,,,,,,,,,
3,4,5,6,{16}3,4,3,,{8}7,2,
8x-5[8:1],1,1,1,5x-8[8:1],2,2,2,8x-5[8:1],3,3,3,1x-4[8:1],7,,,
8x-5[8:1],2,2,,5x-8[8:1],3,3,,{16}1x-4[8:1]/8,7,6-1[8:1],,{8},,,38,27,16,
1x-4[8:1],8,8,8,4x-1[8:1],,7,7,1x-4[8:1],6,6,6,8x-5[8:1],3,2,1,
1x-4[8:1],6,6,6,4x-1[8:1],7,7,7,8x-5[8:1],2<3[8:5],,,,,,,,,,,
{16}3,4,3,4,2,5,2,5,
{8}
3xv8[8:1]/4xq8[8:1],,34,,6v1[8:1]/5p1[8:1],,65,,
3v8[8:1]/4q8[8:1],,34,,6v1[8:1]/5p1[8:1],,65,,
2x>5[8:1],,1v6[8:1],,2>5[8:1],,2<3[4:2],,7h[8:2],,,,7,8,1,2,
6xv1[8:1]/5xp1[8:1],,65,,3v8[8:1]/4q8[8:1],,34,,
6v1[8:1]/5p1[8:1],,65,,3v8[8:1]/4q8[8:1],,34,,
7x<4[8:1],,8v3[8:1],,7<4[8:1],,7qq3[4:2],,2h[4:1],,,,,8b,8b,,
27,3,4,,27,3,4,,3pp4[4:1]*V14[4:1],,,,,8b,8b,,
72,6,5,,72,6,5,,8xs4[4:1]/7xz3[4:1],,,,,1b,1b,,
25,3,47,6,25,3,47,6,24,3,57,6,24,3,5qq1[4:3]*pp1[4:3]/7,6x,5b,,,,,,,,
2,1,8,7,6,
34,25,61,,6`5,7`4,3`8,,34,25,61,,6`5,7`4,3`8,,
61,71,81,1w5[8:1],,,,2-6[8:1],7-3[8:1],2,7,,45,,,,
65,74,38,,3`4,2`5,6`1,,65,74,38,,3`4,2`5,6`1,,
38,28,18,8w4[8:1],,,,7-3[8:1],2-6[8:1],7,2,,
18,27,3qq2[4:1]/6pp7[4:1],,,,,
4>8[4:1],,8V64[4:1],,4>8[4:1],,8,,
6-2>3-7<6[4:2],,,,,1b,1b,
2h[4:2],,3,4,5h[4:2],,2,3,4qq2[4:1]*pp6[4:1],,,,,,8b,8b,,
74,6,52,3,74,6,52,3,75,6,42,3,75,6,4-8[8:1]/2,3,4b/6b,,,,
1h[4:1],,2h[4:1],,3h[4:1],,4h[4:1],,5h[4:1],,6h[8:1],7b>6[8:11],,
