&title=ダークホース
&artist=あ子 feat. 初音ミク
&first=0
&des=おにねこ
&wholebpm=168
&lv_5=13+
&inote_5=(168)
{1},,
{8}73,65,,,62,34,,,
{16}
8,1,8,2,8,3,8,4,
8-4[8:1],5,8,,,,,,
5,,6h[8:1],,5,6,,4,,3h[8:1],,4,3,,6,,
45,,2h[8:1],,4,3,,5,,7h[8:1],,5,6,,2,,
7h[16:1],3h[16:1],7h[16:1],3h[16:1],6,4,,5,,3,4,3,,6b,2b,7b,1b,,,68,,,5/1,,
{12}4-1<8b[32:5],4,4,{16},,,,
4,,2h[8:1],,4,3,,5,,7h[8:1],,5,6,,2,,
54,,7h[8:1],,5,7,,4,,2h[8:1],,4,2,,8,,
2h[16:1],6h[16:1],2h[16:1],6h[16:1],3,5,,4>2[32:3],,6,6,,{16},,,,
{12}
8h[12:1],7h[12:1],6h[12:1],8h[12:1],7h[12:1],6h[12:1],
2h[12:1],3h[12:1],4h[12:1],2h[12:1],3h[12:1],4h[12:1],
{4}
5,1h[8:6],6,6,6-3[8:3],1,1,1,
1-4[8:3],6,6,6h[8:2],7v4v1[32:14],,,{16}A6,B7,B5,B3,
{8}A4,,1h[8:8],,4,,6,,3<8[16:5],,,,2,,3h[8:2]/1,,
6h[8:2],,7h[8:2],,3h[8:2],,2p8[32:8],,8b<1[16:6]*V64[16:3],,,,,,
{16}7,8,7,8,5,,
2h[8:1],,1h[8:1],,4,7h[8:1],,8h[8:1],,5,,3,3-1[32:3],,6-8[32:3],,
,,,,E1,C,E5,,6>3[8:1],,2,,,,,,
1-6[8:1],6,1,6,1,,,,2-5[8:1],5,2,5,2,,
8,,7,,61,,5,,3,4,2,4,1,4,8,4,7-3[32:6],,5,,
5,,6,6-1-4[32:10],,,4,,4,,,,2-6[8:1],,2,,7-1v4<5[32:10],,,,7,,,,3h[8:2],,,,
6,,5,,47,,3,4<7[8:1],,,1,,2,,3,,48,,5,,73,,5,,84,,37,,{32}5b,E6,B6,B7,E8,,,,{16}
1x>4[8:1],,1x,,E2,E3,E4,,4x>1[32:4]*<7[8:1],,4x,,E5,E6,E7,,
8x<5[8:1],,8x,,E2,E3,E4,,5x>2[8:1]*<8[8:1],,5x,,E6,E7,E8,,
1x>5[32:5],,1x,,E2,E3,E4,E5,6xq2[32:5]*<1[32:4],,6x,,E7,E8,E1,E2,
3x<7[32:5],,3x,,E4,E5,E6,E7,8x-4[8:1],,,,5hb[1024:1],,,,
1,,2,4,2,4,3,,48,,7,5,7,5,6-3b[8:1],,,,,,1,,2,,7,,6,,5/4h[8:2],,,,{8}3>6[32:13],,
E7,E8,E1,E2,E3,5,4/6,37,46,37,4v1[8:1]/6v1[8:1],,,,
{16}8b/2,,7>2[8:1],8b,,,57,,4b,,3<6[8:1],4b,,,31,,
{8}8bp4b[8:1],6bx,8b,1bq5b[8:1],3bx,1b,8b,,
{16}7>2qq7[16:11],,,Ch[16:5],,,,,,,,,3,,3<6[8:1],,,,6,,8h[8:2],,,,
{48}3x,4x,5x,,,,,,,3x,4x,5xq3[16:6],,,,,,,3x,4x,5x,,,,
{16}8,,,7,,,6,,4/5s1[8:3],,,,,,,,2,,,3,,,4,,6/4>8[32:7],,,,,,,,
{8}7h[8:4],6,5,4,2h[8:3],3,4,5,6,71,82,13,
{16}1,2,8,1,7,8,6,7,
{16}5b,,4-7[8:1],6b,,,42,,1b,,8-3[8:1],2b,,,86,,
7<4[8:1],,8v3[8:1],,7,,8,,7<3[32:4],,8,,{24}E7,E6,E5,E4,,,{16}
1-5-1[8:2],,,5,1,,,,E8,E7/A6,E3,E4/A4,,,7-3[8:1],,,,7/8,,1h[32:20],,,,
E1,,B7,,B3,,E5,,
6h[8:2],,5,,2h[8:2],,5,,7h[8:2],,4,,1h[8:2],,4,,8,,5<8[8:1],,3,,,,
E3,,B4/A4,,B5/A5,,E7,,1h[8:2],,4,,6h[8:2],,4,,3h[8:2],,5,,7h[8:1],,5,,8v5[8:1]/4v1[8:1],,,,8pp2[32:5]/4pp6[32:5],,,,,,,,Cf/B7/B3,,,,
{8}1h[8:1],5h[8:1],2h[8:1],6h[8:1],3h[8:1],7h[8:1],4h[8:1],8h[8:1],
{16}5,7,4,6,3,5,2,4,{48}1,,,7xh[1024:1]`1bx,,,,,,6xh[1024:1]`1bx,,,,,,,,1bx`5xh[1024:1],,,,,,,
{16}2,4,3,5,4,6,5,7,5,6,4,5,3,4,2,4,
1h[16:1],5h[16:1],1h[16:1],5h[16:1],2,4,3,5,,6,5,7,,3b,7b,2b,8b,,3,24,,6,57,,
85,7,6,5,14,2,3,4,
{12},7,7,7,5,6,2,4,3,7,4,5,1h[48:6],{24},7b,4,5,2b,,,7b,4,5,{8}2b,31,48,57,
{16}6h[16:1],5h[16:1],6h[16:1],5h[16:1],7,3,3,4,,2b,2b,3b,,1,1,8,
2h[8:1],,3h[8:1],,4h[8:1],,5h[8:1],,6h[8:1],,7v2<7-4<5-2[16:22],,
{48}B8`B1`E1,,,,,,,,,,,,
{8}
,,3,,3,,3,,3,,3,,B6,B5,B4,B3,
6,,6,,6,,6,,65,,45,,E3,E4,E6,E7,
2,,2,,2,,2,,24,,54,,A7,D6,D4,A2,,
7,5,4,1h[8:4],,,,
,,E2f/B2/B1/B5/E6/B6,,,4p8-6v5>4[8:14],,,,,,,,,,,,,,,,,C,,
{16}8b/3b<6qq3b[32:18],,,6hb[16:5]/1b,,,,,,,,,8,,8v5[32:4],,4v1[32:4],,8,,4,,,,
{48}2x/6x,5x,4x,,,,,,,7x/3x,4x,5xpp8[16:8],,,,,,,1x/7x,6x,5x,,,,
{16}2,,,3,,,4,,5q8[8:4],,,,,,,,8,,,7,,,6,,1/5pp8[8:4],,,,,,,,
{8}4,3,2,1,6>3[8:1],7,8,1,2,35,46,57,
{16}5,6,1,8,3,4,1-4[8:1],8-5b[8:1],
{16}3b,,1,8b,,,4-1[8:1],5-8b[8:1],2b,,4,5b,,,
2,,7<4b[32:4],,3v8b[32:4],,7,,3,,4>6b[8:2],,1,,{24}E4,E3,E2,E1,E8,E7,{16}
3,,3,4,,6,5,,E2,B3/E4,E8,E6/B6,,,4-1b[16:2],,,,64,,8qq7[16:5],,,,
A1/B1,,A2/B2,,A3/B3,,A4/B4,,
6b>3b[32:4],,7,,2b>5[32:4],,1,,7b<4b[32:4],,8,,1b>4[32:4],,8,,6bpp5b[16:5],,7,,,,,,
B3/A3,,B2/A2,,B1/A1,,B8/A8,,
3b<6b[32:4],,2,,7b<4[32:4],,8,,2b>5b[32:4],,1,,8b<5[32:4],,1,,8/4>1[32:4],,,,4/6q5b[32:7]*-8-2-4b[32:7],,,,6b,,,,B4/Cf/B8,,,,
63,,5,,24,3,,6,5,7,,1,2/8,,3,,
5/4,,6,,75,6,,3,4,2,,8,7/1,,6,,
4h[16:1],5h[16:1],3h[16:1],4h[16:1],2,3,,18,,6,5,7,,2b,6b,3b,5b,,2,24,,7,7/5,,
{12}1s5b[32:5]/8z4b[32:5],81,81,{16},,,,
36,,4,,75,6,,3,4,2,,8,7/1,,6,,
4/5,,3,,24,3,,6,5,7,,1,2/8,,3,,
5h[16:1],4h[16:1],6h[16:1],5h[16:1],7,6,,8-4[16:2],,4,4,,{16},,,,
{12}
2h[12:1],3h[12:1],4h[12:1],3h[12:1],4h[12:1],5h[12:1],
4h[12:1],5h[12:1],6h[12:1],5h[12:1],6h[12:1],7h[12:1],
3h[12:1],4h[12:1],5h[12:1],6h[12:1],5h[12:1],4h[12:1],
8h[12:1],3h[12:1],4h[12:1],5h[12:1],6h[12:1],5h[12:1],
7h[12:1],6h[12:1],5h[12:1],6h[12:1],5h[12:1],4h[12:1],
5h[12:1],4h[12:1],3h[12:1],4h[12:1],3h[12:1],2h[12:1],
7-2[8:1],,,,,,1b,,,,
