&title=Parousia
&artist=xi
&first=0
&des=yuzukeai
&lv_5=14
&inote_4=
&inote_5=(158)
{1},{8},{96}8xw4[8:11],,,,,,,,,,,,{4},,,{1},
{2}1h[1:3],E8,E7,E6,E5,E4,2b-6[1:1],
{4}8,1,2,,,5-1[1:1],1,,2,,
{12}3h[4:3],,,,,,,,,,,,
8-5[8:1],,,8b,,,
{16}E2,B2,B3,E4,E8,B7,B6,E6,
2h[8:1],,,,31,,4,5,3,,26,,7,,4,,
6h[8:1],,,,71,,2,,35,,6,4,6,4,7,,
6h[8:1]/5h[8:1],,,,74,,8,1,7,,52,,3,,4,,
2,,2,,3/1s5-3[8:3]*s5-7[8:3],,,,,,,,,,,,2x<7[8:1],,3,,26,,,,5-1[8:1],,6,,51,,,,
2-6[8:1],,3,,8-4[8:1]/2,,7,,8/1-5[8:1],,2,,81,,7,,
7,,1,4,3,,8,5,6,,27,,{24}3x,8,3,8,3,8,1b/4b,,,,,,,,,
{16}7,4,6,3,5,2,4,1,1,,
{16}7,2,7,2,6,1,6,1,7,2,7,2,8xh[8:1],,{24}3,,,
{16}8,7,6,5,{24}A2,E3,E4,{16}6,,1x,1,7x,7,8-4[12:1],,1,,
2^5qq3[8:2]/8b,,,,5,,,,{12}7,7,7,5,5,5,
{16}1-5[12:1],,,3,,,2,,4<1[4:1]/1,,,,1qq7[4:1]/4pp6[4:1],2,3,4,
,,,,,,,,{12}58,58,58,{16}7,,6,,
5,,4<7[8:1]/8,,,,48,,1,,28,,3-7[8:1],,4,,
7qq5q1[8:3]/3bqq1q5[8:3],,,,,,,,,,,,{12}84,84,84,
{16}8-4[12:1],,,3,,,2,,2-6[8:1]/6x-2[8:1],,,,C,,,,
1-5[8:1],8,7,6,5,,,,{12}1,1,1,5,5,5,
{16}4,,3/7-3[8:1],,,,7,,{24}1x,8x,7x,6x,5x,4x,3x/7,,,15,,,
{16}7,2,5,2,8,2,4,2,5,3,6,4,8,2,7,1,
{12}6,5,4,5,4,3,
{16}4,2,5,3,7,8,6,1,
5,,2-6[8:1]/4,,,,2,,8h[4:1],,,,1,2,3,4,
{24}1b-5[8:1],,,,,,{16}1/8-4[8:1],7,6,,8b/1,,,,2-6[8:1],,31,,
{16}2,,,,1x,8,7,6,54,3,2,1,5,6,7,8,2x,B3,B4,B5,7x,E7,E6,E5,1xb,7,3,8xb,2,6,4,8,
1,7,2,6,3,5,4,6,1,7,2,8,A3,A5,A1,A7,Ch[2:1],,,,,,,,{32}E8/B8/B1/E2/D1/E1/E5/D5,A1,D2,A2,D3,A3,D4,A4,D5,A5,D6,A6,D7,A7,D8,A8,
{16}5hxb[2:4]/D1f,,,,,,,,,,,,,,,,3x-8[2:1],,,,,,,,,,,,,,,,6x-1[2:1],,,,,,,,,,,,,,,,
{4}3-8[2:1],4,5,6,
{12}B1,B2,B3,B7,B6,B5,E3,E4,E5,E6,,,
3xv1[2:2]/7xv5[2:2],,,,,,,,,,,,,,,,,,1x-4[2:1],,,,,,A1,,,,,,
8,,,7,,,6V84[24:13]/4,,,8-4-6[4:2],,,1,,,2,,,3-1-5[24:13],,,1-5-3[4:2],,,8,,,7,,,
6-2-4-8[4:3],,,2,,,1,,,8V62[4:2],,,1,,,2w6[4:1],,,,,,,,,
{16}2/8-4[8:1],,4/6,,8,,,,{24}1,2,3,,,,6,5,4,,,,
5/2-6[8:1],,,6-1[8:1]/1,,,2,,,,,,
5h[4:1],,,,,,8x,7,6,5,4,3,
{16}7,1,6,8,5,3,5,4,6,2,5,4,7-3[12:1],1,5,3,7-1-3[2:1]*-5-3[2:1]/C,,,,,,,,,,,,,,,,
E5,E6,E7,E8,1x,2,3,4,E3,E4,E5,E6,7x,8,1,2,6-4[8:1]*-3[8:1],,,,6b-2[8:1],,,,6b-1[8:1]*-8[8:1],,,,6b,,,,Cf/B2/B3/E3/B7/B6/E7,,,,1,8,1,6,1,7,1,5,15,,37,,
6,4,6,4,8,2,8,2,6,2,6,2,7b/1-5[12:1],,,,
{32}1b,,,,{24}7,8,1,2-5[12:1],,,,,,2b,,,8,1,2,3-6[12:1],,,,,,
3b,,,8,1,2,3,4,5,6,7,8,13,,,{16}4-1[8:1],,5-8[8:1],,4,,
5,,,,3,5,1,6,5,8,4,,7-1[12:1]/3,,2-4[8:1]/6,,7V51[4:1],,2,,,,,,{16}2b,3,4,5/8b,7,6,5/3b,,
{16}2h[8:1],,{24}8,1,2,3,,,{16}1,1,6h[8:1],,{24}8,7,6,5,,,{16}8,8,
{32}4h[8:1],,,,2,3,4,5,6V47[16:6]/1,,,,2,,,,6b/3b-8[8:1],,,,,,,,3,,,,,,,,
{16}1-6[12:1],8,2,1,3-7[12:1],,,,{12}5/3b,5,5,{8}5,B2/B3,
{16}5-1[12:1],4,6,5,7-3[12:1],,,,{32}7b/2V48[12:2],,,,,,,,26,,,,,,,,
{16}6,5,4-8[12:1]/1,,,,4,,1,2,37,,46,,3,5,
{16}1b,8,7,6/1b,5,4,3/8b,7,6/2b,5,4,
{48}1b,D1,A8,D8,A7,D7,A6,D6,A5,D5,A4,,,,,
{16}8,8,2,7,3,6,4,6,5x,4,3,2,1/8x,7,6,5,
1b,1,4,2,5,3,6,4,7b,7,1b,6,4b,8,2b,5,4b,4,6b,6,3b,3,5b,5,{32}1b,8,7,6,5,4,3,2,1b,8b,7b,6b,5b,4b,3b,2b,
1b-4b[8:1]/5b-8[8:1],,,,,,,,{4}5v7b[8:1]/1v3[8:1],,{8}2-7[12:1],37,
6-1<4[8:3]/2b-5[12:1],,{32},,,,,,,,{16}3,2,1,8,7>4[12:3],,,,
6/7b,,,6-4-8-2-5[8:4],,,6,,2h[8:3],,,,,,,,1v2-4[4:1],,5v6-8[4:1],,,,,,,,,,4x-1[12:1],,,,
4-8[12:1]/7-5[12:1],,,,4<2b[4:1]/7,,,,42,,,,Cf/B2/E3/B3/B7/B6/E7,,,,
2-6[12:1],,2,,2/7-1[12:1],,7,,7/3-5[12:1],,3,,36,,6,,6/B1,,3h[8:1]/E6,,7,,
7,1,6/2-6b[12:1],,,,{48}2b/5,B2,C,B6,A6,,,,,,,,
{24}1,2,3,5,6,7,2,3,4,6,7,8,3,4,5,7,8,1,
{32}4,5,6,7,8,1,2,3,
{32}5b/4,6,7,8,1,2,3,4,{32}5b-8[8:1]/1b-4[8:1],,,,,,,,5b-2[8:1]/1b-6[8:1],,,,,,,,5b/1b,,,,,,,,
{16}1,5,3,7,5h[16:1],6h[16:1],2h[16:1],1h[16:1],3h[16:1],4h[16:1],8h[16:1],7h[16:1],{24}1b-5[12:1]*-5[12:1],6x,2b,7x,3b,8xp2[16:17],
{16}4bp6b[1:1]/Cf,,,,,,,,,,,,,,,,,,,,,,,,,,,,,,,,,6x<3[2:2],,{1},{16}4hx[16:18],,,,,,,,,,,,,,,{32},,,,,,,A2,A1,A8/D8,
{1},,
,
