&title=INFiNiTE ENERZY -Overdoze-
&artist=Reku Mochizuki
&first=0
&des=while(FallingL == 1034):
&clock_count=4
&des_6=while(FallingL == 1034):
&lv_6=14
&inote_6=(180){4},,,,
{8}1bhx[8:1]/Cf,,,7bhx[4:1]/8bhx[4:1],,,3bhx[4:3]/5bx,,
4bx,4,4,4,4-1[8:1],4,4x,,
7x/8x,1,78,6,{16}2,5,2,5,3-6[8:1],4,3,4,
{8}3xV58b[4:1],,,,1bx,2bx,3bx,4bx,
3x/5x-7[32:3],5,2,1,8-4[8:1],2,8,2,
5-3[8:1],5,1,2,8h[16:1],8h[16:1],7h[16:1]/1>4[8:1],,
6hx[16:1],6h[16:1],5-3[32:3],5,8h[16:1],8h[16:1],2-5[8:1],2,
7x,7h[4:1],,6V41[4:1],6x,,8,8,
7b-5[32:3],1,7,2,4-6[32:3],4,3h[16:1],3h[16:1],
4-7[8:1],3,2h[16:1],2h[16:1],6V47[4:1],2,1h[16:1],1h[16:1],
8-2[8:1],8,7,7,5-1[8:1],6,5V74V28[2:1],,
2hx[2:1],,,,,,1b/7b,,
{16}2x/6x,,2,4,3,5,,1,,1,7,,62,,3,,
47,,7,5,6,4,,1,,1,2,,48,,6,,
43,,2,,57,,6,4,,2,1,,73,,4,,
56,,7,,52,,3,4,,7,8,,2x/6hx[8:1],,,,
17,,7,5,6,4,,3,4,2,5,,78,,1,,
62,,2,4,3,5,,6,5,7,4,,21,,8,,
37,,6,,45,,3,4,,8,1,,2V83V57[2:1]/7,,6,,
{4}5hx[2:1],,,8bx-4b[8:1],
{1}Cf,
,
,
,
{2}6h[2:1],5h[2:1],
7>5[2:1],,
3h[2:1],4h[2:1],
2<3b[2:1],,
{8}8b-4V61[8:5]/1b,,4,,3,,2,,
3b-8-4[4:1],,8,,7,5bx/6bx,,1b/2b,
4b-8V25[8:5]/7b,,8,,7,,6,,
7b-4V61[2:1],,8,,1-5b[8:1],2,3b/A1f,,
4bx/7x,7,7,7,2/4b,2,2,2,
1b/8,8,6x/8,8,3/7b,3,4x/3,3,
{16}6x,4,6,4,7x,3,7,3,{32}8hx[8:1],,,,1x,2x,3x,4x,6x/5x,,,,8x,7x,6x,5x,
{8}4xV68b[4:1]/3x,,,,1b,2b,3b,4b,
{16}5b-1[8:1]/6b,,7,,5,7-4[8:1],,8,,8,1,2,3x,,3x,,
1-5[8:1],,8,,1,6-8[32:3],,4,,4,3,2,1x,,1x,,
8-4[8:1],,7,,8,6-1[8:1],,5,,5,4,3,2x,,2x,,
5-7[32:3],,5,,1,2h[8:1],,8,,8,1,,73,,7,,
4-8[8:1]/5,,3,,4,2-5[8:1],,1,,1,8,7,6x,,6x,,
8-4[8:1],,1,,8,3-1[32:3],,5,,5,6,7,8x,,8x,,
1>4[8:1],,2,,6,6-1[8:1],,5,,5,4,3,2,,8,,
2b/6b,,3,,5,4,,37,,2,1,,3-1b[32:3]/8,,4/1,,
8b-4[8:1]/A3f,,7,,8,6<1[8:1],,5,,5,4,3,2-4[32:3],,2,,
5-1[8:1],,6,,5,7-4[8:1],,8,,8,1,2,3-1[32:3],,3,,
5<8[8:1],,5,,2,2-5[8:1],,1,,1,8,7,6v1[8:1],,6,,
4-2[32:3],,4,,8,7h[8:1],,1,,1,8,,7-1[32:3]/3,,7,,
1-5[8:1],,2,,3,3>8[8:1],,6,,6,5,4,3x,2,1,8,
5-1[8:1]/7x,,5,,7,7<4[8:1],,2,,2,1,8,7x,6,5,4,
3x/8-4-6[4:1],,8,,2,,2,,{32}1h[8:1],,,,8,7x,6x,5x,4x/3x,,,,1,2x,3x,4x,
{8}5bxV31b[4:1]/6bx,,,,,7x/8x,2b/6b,,
7bv6-4[4:1]/4b,,1,2bv1-7[4:1],,7,5b-7v4[4:1],,
8bx,8x,8x,8x,1b/5,2b/6,3b/7,4b/8-2[32:3],
3<5[32:3],8-6[32:3],3,8-2[32:3],4>2[32:3],8-6[32:3],4,8-2[32:3],
3<5[32:3],8-6[32:3],3,8-4b[8:1],4,8,1b,1<7[32:3],
6-4[32:3],1>3[32:3],6,1<7[32:3],5-7[32:3],1>3[32:3],5,1<7[32:3],
6-4[32:3],1>3[32:3],6,1-5b[8:1],5,1,8b,7-1[32:3],
2-5[8:1],7-5[32:3],2,7-1[32:3],4-1[8:1],7-5[32:3],4,7-1[32:3],
2>5[8:1],7-5[32:3],2,7,1,1,2b/8b<5[8:1],,
1h[8:1]/8b-4[8:1],,6h[8:1]/8-3[8:1],,2h[8:1]/8-4[8:1],,7/8V64[8:1],7,
8V24[8:1]/1h[8:1],,8/6h[8:1],,{16}5x/7,,4,,1>4[8:1],8,7,6,
{8}5h[8:1]/1-5[8:1],,3h[8:1]/1-6[8:1],,7h[8:1]/1-5[8:1],,2/1V35[8:1],2,
1V75[8:1]/8h[8:1],,1/3h[8:1],,{16}4x/2,,5,,1,2,3,4,
{8}7,28,5,18,6,28,7,18,
2,17,3,18,4,17,5,18,
{16}6,5,7,4,8,3,1,2,{32}8h[8:1],,,,1,2,3,4,6x/5x,,,,8,7,6,5,
{8}4bxV68b[4:1]/3bx,,,,1b,2b,3b,4b,
{16}5x-2b[8:1]/1x-6b[8:1],,,,5b/1b`Cf/B3/B7,,,,4x-2[32:3]/7hx[8:1],,,6h[8:1],4,,5,5,
1-5[8:1],,6h[8:1],,1,8h[8:1],,,4-2[32:3]/7h[8:1],,,5h[8:1],4,,6,1,
8-4[8:1],,2h[8:1],,8,1h[8:1],,,5-7[32:3]/2h[8:1],,,3h[8:1],5,,2,2,
8-4[8:1],,1h[8:1],,8,2h[8:1],,,5-7[32:3]/3h[8:1],,,4h[8:1],5,,2,,
1-3[32:3]/8,,7h[8:1],,1,8h[8:1],,,4-8[8:1]/6h[8:1],,,5h[8:1],4,,7,7,
1-3[32:3],,5h[8:1],,1,8h[8:1],,,4-8[8:1]/7h[8:1],,,6h[8:1],4,,5,1,
7-5[32:3],,8h[8:1],,7,1h[8:1],,,4-8[8:1]/2h[8:1],,,3h[8:1],4,,1,1,
7<4[8:1],,2h[8:1],,7,1h[8:1],,,2bh[8:1]/3bhx[16:1],,,7bh[8:1]/5bh[16:1],,,1b/6b,,
7b-5[32:3]/8b,,1h[8:1],,7-1[32:3],2h[8:1],,,7-5[32:3]/3h[8:1],,,4h[8:1],7>1[32:3],,3,3,
7<5[32:3],,2h[8:1],,7>1[32:3],3h[8:1],,,7<5[32:3]/4h[8:1],,,3h[8:1],7,,3,4,
2-4[32:3],,7h[8:1],,2-8[32:3],8h[8:1],,,2-4[32:3]/6h[8:1],,,5h[8:1],2<8[32:3],,7,7,
2>4[32:3],,6h[8:1],,2<8[32:3],5h[8:1],,,2>4[32:3]/6h[8:1],,,7h[8:1],2,,8,,
7<4[8:1]/5,,2h[8:1],,7-3[8:1],1h[8:1],,,7-5[32:3]/8h[8:1],,,1h[8:1],7,,2,4,
1>4[8:1],,7h[8:1],,1-5[8:1],5h[8:1],,,1-3[32:3]/8h[8:1],,,6h[8:1],1,,7,4,
56,,7,,8/1,,2,,45,,{32}8,7,6,5,43,,,,1,2,3,4,
{4}5b<4[2:1]/6b,,,8bx-4b[8:1],
{1}Cf,,,,E
