&title=群青シグナル
&artist=忘了
&first=0
&des=KuSA
&lv_6=13
&inote_6=(103)
{2},
{16}
,,,,4>5[16:7],5,,,
{8}8h[2:1],,,,4,3,6<3[16:6],4,2h[2:1],,,,
5-1[8:1],4/6,{16}8b<5[10:1],,,,8/2>5[10:1],1,,,
2/6,7h[16:6],,6,,1p5[8:1],,3,,,,,
2,2h[8:1],5,6-1[16:1],4,4h[8:1],,6,,{32}2,1,2,,7,8,7,,{16}5,64,,
7,7h[8:1],4,3-8[16:1],5,5h[8:1],,3,,{32}7,8,7,,2,1,2,,{16}4,35,,
6,6h[8:1],1,2-6[16:1],8,8h[8:1],,2,,{32}7,8,{16}7-4[12:1],,3qq8[4:1]*pp6[4:1],,7,,3,,
,,,1,1,2/7h[16:2],,5h[16:1],8h[16:1],4h[16:1],1-6[16:1]*-4[16:1],3,3,,1b,,
8,7<4[16:1],2,3h[8:1],,7,,{32}3,4,2,,6,5,{16}7<4[16:1],3,3>8[16:1]*p7[16:1],,7,,3,,
5,5,5,3b/7b,,6,8<4[10:1],1,3,,,,1h[16:5],,3,3,3,3,1,5h[16:5],2,2,3,3,4,4,
{32}6,5,6,,{16}7/4,,2/5,,3,4-2[16:1],5-7[16:1],6,,4,5,1,8/2-6[16:1],37,,,
2b/8h[16:3],,,5,,,2h[16:3],,,4,,,3/5,,4/6,,7qq5[8:1]/5>2[10:1],,8,,7/5<1[8:1],,,
4qq2[8:1],,2>6[8:1],,,,,,,1/8,,3,5,4,6,5,7h[4:1],,1,,5,7q3[16:5],4,6,3,5,,5,,
5,5,5,1h[16:5]/5h[16:5],,,,,,,{32}1,2,3,4,{16}5h[4:1],,7,,4v2[10:1],5,6v8[10:1],
,4,,6,,1,2,3/8h[4:1],,5,5v2[10:1],5v8[10:1],5,,,,,,,
2,3h[8:1],8,7h[8:1],3,4,6/5<8[16:1],,2,2,3/5,,2,1>4[16:1]/2,,7/8,,1/6,,
7,7/5,,8h[4:1]/3<6[12:1],,{32},,1,2,{16}3,,8,76,,4q1[10:1]/5p8[10:1],,23,,,,,
8/7h[4:1],,5,5,4h[4:1],,6,,5h[4:1],,3,3,2h[4:1],,4,,
4h[4:1],,1,1,3h[4:1],,5,,6h[16:3],5,5,4,3/6,,4/5,,1-4[16:1],,5,5,1-6[16:1],,37,,
1-4[16:1],,7,7,1-5[16:1],,8-4[16:1]/2,,1-6[16:1],,8,,1,,5,4-8[12:1]/5-1[12:1],,
1>4[8:1]/8<5[8:1],,45,,,,,1bs5[4:3],,,,,,,,,,,,,,,,8<4[8:4]*<4[8:4],,,,,,,,
1,,1,,1,,1,,
2/4h[16:1],,3/5h[16:1],,6/4h[16:1],,7/5h[16:1],,
2h[16:1]/4h[16:1],,3h[16:1]/5h[16:1],,6h[16:1]/4h[16:1],,7h[16:1]/5h[16:1],,
7/5,5,64,4,5/3,3,42,4/2q6[12:1],,8/1,,5,8b,,,,
7<5[16:1],1-5[16:1],8-4[16:1],2>4[16:1],7,1,8,2,,,6/5,6/5,4-8[16:1]/7h[8:1],,
1h[8:1],,4pp2[16:3],,3,3,2qq6[132#16:4],,,,,,4h[8:1],,5,5,
2>5[16:1],1,8<5[16:1],,2-6[16:1],1,8-4[16:1],,2,1,8,,2^5[16:1]/6^1[16:1],,
8-4[16:1]/4-8[16:1],73,62,,,,2/6,,{32}3,4,3,,2,,2,,7>4[16:2],,5,6,5,6,5,,3b,,,,,,,,
{16}1-4[16:1],1-6[16:1],5V31[12:1],5V71[14:1],,,,,,,2,3,4h[8:1]/8>3[16:1],,6h[8:1],,8,,
7,5w1[12:1],4/6,4/6,46,5b,,,4>1[16:1]/7<4[16:1],,2
,6,7/4,,
8h[8:1],,6-4[16:1],,2h[8:1],7,6,,3h[8:1],,2-4[16:1],,6h[8:1],1,2,,
7/5,6,5/4,3,{32}2/4,1,8,7,6,5,4h[16:5]/7b,8,1,2,3,,5,6,7,8,{16}1s5[16:1]*-5[16:1],,37,,1b,,
2h[32:1]/8h[32:1],,4h[32:1]/6h[32:1],,3,3,{32}6,5,6,,4,5,4,,4h[8:1],,{32}8,7,6,5,3,2,{16}1,
7h[8:1],1,3h[8:1],5,7h[16:1],1,26,,{32}3,4,3,,5,4,5,,{16}4/6,4/6,,
{32}2,4,3,4,2h[8:1],,,,5,,2,4,3,4,3,,25,,,,8h[8:1],,,,{32}
4-8[16:1],3,2,1,8-4[16:1],7,6,5,4>8[16:1]*<8[16:1],,,,,,,,,,,,
{16}2/6,2b/6b,,34,45,56,7-3[16:1]/8,1,2h[8:1],,7b>6[8:5],,
1,,2,,3,3,4,,7,7,8,,2,2,3h[8:1],,4,4h[16:1],5,5h[16:1],6,7h[32:1]/5h[32:1],,
1h[32:1]/8h[32:1],,2h[32:1]/4h[32:1],,{32}8/1,27,{16}3/6h[8:1],,8b-4[16:8],,
5,5,7,7,1,1,3,3,5,5h[64:7],,{32}3pp8[8:4]/6qq1[8:4],27,18,,,,3/6,,,,,,,,{16},,,,
,,,,{32}3/6<1[16:1],,,5,4>1[16:1],,3,,{16}6v1[16:1],,4-8[16:1],,6,,
4bw8[16:3],,,,,,,,,,
7<5[16:1],8-4[16:1],1-5[16:1],2>4[16:1],7,8,1,2,,,
34,34,2h[8:1]/5-1[16:1],,8h[8:1],,5qq7[16:3],,6,6,7pp2[132#16:4],,,,,,5h[8:1],,
3,3,7<4[16:1],8,1-5[16:1],,7-3[16:1],8,1>4[16:1],,7,8,1,,
3^8[16:1]/7^4[16:1],,1-5[16:1]/5-1[16:1],26,3/7,,,,37,,
{32}6,5,6,,7,,7,,2V85[16:2],,4,3,4,3,4,,6b,,,,,,,,
{16}1>4[16:1],1q5[16:1],5<8[16:1],5q1[16:1],,,,,,,7,6,5h[8:1]/1<6[16:1],,
2h[8:1],,1,,{64}1b,2,3,4,,,,,
{16}56,75,85,{48}8,7,6,5,4,3,2,1,8,{16}7<4[16:1]/3^8[16:1],,2,6,3/7,,
6h[8:1],,8p4[16:1],,34,2,18,,3h[8:1],,1q5[16:1],,
56,7,81,,8/7,6,4/5,3,
{32}12,8,7,6,54,3,2,1,7h[8:2]/8,,,,,,,,5-1[16:1],,,,4,,4,,6b/5b,,,,
{16}7,6<1[16:1],4,4h[8:1],,6,,{32}2,3,4h[16:1],,8,7,64,,37,,28,,,,
{16}8,7h[8:1],2,3>8[16:1],5,5h[8:1],,3,,{32}6,8,7-4[16:1],,
2,1,3-6[16:1],,,,7-2[16:1],,,,3-8[16:1],,,,7-4[16:1],,,,3-6[16:1],,,,
7-2[16:1],,,,3-8[16:1],,,,7-4[16:1],,,,3qq7[4:1]*pp7[4:1],,,,7b,,,,3b,,,,
,,,,,,
{16}1,1,7/2h[16:2],,4h[16:1],1h[16:1],5h[16:1],{32}8,1,2,3,
{16}4b/8b,,
6,6h[8:1],3,4>1[16:1],8,8h[8:1],,4,,{32}7,6,5h[16:1],,1,2,35,,{16}2/6,1/7,,
4,4h[8:1],7,8<5[16:1],2,2h[8:1],,8b,,3,28,7/1>5[10:1],68,,,,
8h[16:5],,6,6,6,6,68,68,75,75,64,64,53,53,
{32}3,4,3,,{16}2/5,,7/4,,78,5-7[16:1]/6-8[16:1],34,1-3[16:1]/2-4[16:1],,
6b/5bw1[16:1],,1b/2b,,5b,,,
{64}1b/8b,2b/7b,3b/6b,4b/5b,
{16}
,,,,,,,,,,,5<4[16:7],4,,,
{8}
1h[2:1],,,,5,6,3>6[8:3],5,7h[2:1],,,,
4-8[8:1]*-8[8:1],5/3,{16}1b>4[10:1],,,,1/7<4[10:1],8,,,
7/3,2h[16:6],,3,,8p4[8:1]*q4[8:1],,6,,,,,
