&title=ココ☆ナツ
&artist=pastel palettes
&first=0
&des=DJL2374
&lv_5=14
&des_5=丸山养鸡场2347
&inote_5=
(175){4},,,,,,,,{8}3/6b,
2,2,7,3,6,5,2,
1b/8,7,{4}3qq1[8:1]/7qq5[8:1],3/7,4x/8x,
{8}1/5b,2,3/7,8,7/3b,8,2/6x,3,
,5/2-4[8:1],,5/2,{4}5b-7[8:1],{8}5b,4,
4-2-8[4:1],7,4/8,7,6,5,5/1,6,
7>2[4:1]*<4[4:1],8,7x,D6/D1,A4/A2,3,3/5,6/4-2[8:1],
6-8[8:1],4/6,6-4[8:1],1,6/2,3,5/4,6/3,
{4}7b/2b,1b-5[8:1]/8b-4[8:1],8b/1b,6h[8:1]/3h[8:1],
{8}5x/7-2[8:1],4x,7/3x,3-6[8:1],1x,3/8x,7x,7h[4:1]/5-3[8:1],
6,5,7-1[8:1],2,{4}2-6[8:1]/7-3[8:1],2b/7bx,
{8}5/4,6/3,7/2,8h[8:1]/1>4v6<1[8:9],,7/1,6,5,
5,5,5,5-1[8:1],5,5,,,,1/8,
1/7,6/1,{4}1-5[8:1]/5-1[8:1],5b/1b,
,{8}4-8[4:1],5,{4},5,
,{8}8-4[4:1],5,{4},5,
{8}4/6-8-4[4:1],5,{16}6/5,4x,3x,2x,{8}1-3-7-1[8:3],5-1-7[4:1],1,5,
{4},{8}8x-3[4:1],8x,{4}8-5[4:1],8,
,{8}4-8[4:1],5,{4},5,
,{8}8-4[4:1],5,6,7,{16}8-5[8:1],3-8[16:3],8,3,
{8}8,{16}A5,A6,{8}A7,8,5,8-4[4:1],5,8/5,
,6,3/6,3,7/3,{16}6/2,5/1,{4}8/4-7[4:1],
{8}8/4bx,1-5-3[8:3],A7,1bx,,{16}6x,7x,{4}8-5[4:1],
{8}8b,2-6-4[8:3],A5,2bx,,{16}1x,8x,{4}7x-2[4:1],
{8}7b,3-6[4:1],A2,3bx,{16}1,8,{8}7,{4}8xV63[8:3],
{16}8/5,4,{8}3x-7-1[8:3],,5bx,,{16}5x,4x,{8}3x-6[4:1],8,
3b,8-5-3[8:3],A6,8bx,,{16}3,2,{4}1-4[4:1],
{8}1b,6-4-1[8:3],A4,6bx,,{16}2x,3x,{4}4x,
5/4h[2:1],6,7-2[4:1],{8}7,4-1-7[8:3],
A2,4,6x,5,{16}4x,3x,2x,1x,8/4,7/3,6/2,5/1,
{4}4/8,{8}8-4[4:1],5,8,5-1[4:1],5,3,
2,3-1-5[4:1],6,{16}3/6x,7x,{8}8x-5[4:1],{16}A5,A4,{4}8/A3,
2-5[4:1],{8}2,{16}6,7,{8}8-4[4:1],3-1[8:1],8,3,
,6/2,7/3,8/4,{16}5-1[4:1]/1-5[4:1],4x/8x,3x/7x,2x/6x,{4}5x/1x,
A5/A1,{8}1-5[4:1],4,1,4-8[4:1],4,6,
7,6-8-4[4:1],3,{16}6/3x,2x,{8}1x-4[4:1],{16}A4,A5,{4}1/A6,
7-4[4:1],{8}7,{16}3,2,{8}1-5[4:1],6-8[8:1],1,6,
,3/7,2/6,1/5,{16}4/8,5x/1x,6x/2x,7x/3x,{4}8x/4x-1[4:1],
{8}4b,5-7[4:1],A1,{16}5b/4x,3x,{8}2x,A7,8/1,8/2,
3/8,8-4[8:1]/4-8[8:1],,4b/8b,,{16}3,7,{4}3,
7/3h[4:1],{8}6,4/5h[4:1],{4}4,{8}6/3-1[4:1],4,
{4}3/6,{8}8,7,{16}7,2,7,2,7-2[4:1],2,7x,2x,
{8}7bx,3-5-1[4:1],A2,3b,{16}8,7,6,5,{4}4-7[4:1],
{8}4bx,1-4[4:1],A7,1bx,,{16}8x,3x/7x,{4}2x/6x,
1/5h[4:7],2,{8}3,4,,3-1-7-3[8:3],
,3,A1,B7,{4}A3,4b,
6/3,7/2,{8}8,1,,1/8-4-6-2[8:3],
,8,1,1,{4}1b,1b/3,
1/4,1/5,{8}8/4,1/5,,4-7[8:1]/8-3[8:1],
8/4,4x/8x,{4}A7/A3,4bx/6bx,6bx/4bx,
3bh[8:1]/5bh[8:1],4bh[8:1]/6bh[8:1],{8}5b/4bx,4b/5b,,6b/3b,
,,,6b/4b,,5,5,5,
{4}5/4,{8}3/6-8[4:1],5x,6/3,4x,{16}3x,2x,1x,8x,
7,6,5,4/8,7/3,6/2,{8}5h[8:1]/1h[8:1],,{16}6/A2,D3,6/A3,D4,6/A4,D5,
{4}6/A5,{8}6/3-1[4:1],4x,3/6,5x,{16}6x,7x,8x,1x,
2,3,4,5/1,2/6,3/7,{8}4h[8:1]/8h[8:1],,{16}3/A7,D7,3/A6,D6,3/A5,D5,
{8}3h[4:1]/A4,{4},{8}6-8[8:1],6,2-4[8:1],2/A8,6-4[8:1],
6/A4,2-8[8:1],2/A4,6-8[8:1],6/A8,3,{4}A8/3V17[4:1],
{8}3,{16}6x,5x,{8}4x,4/8,1/5,6/2,7/3,4h[8:3],
{16}8x,7x,6x,5x,,3x,2x,1x,4/8,3/7,2/6,1/5,8,7,6,5,
{4}4,{8}6/3-1[4:1],4x,3/6,5x,{16}6x,7x,8x,1x,
2,3,4,5/1,2/6,3/7,{8}4h[8:1]/8h[8:1],,{16}3/A7,D7,3/A6,D6,3/A5,D5,
{4}3/A4,{8}3/6-8[4:1],5x,6/3,4x,{16}3x,2x,1x,8x,
7,6,5,4/8,7/3,6/2,{8}5h[8:1]/1h[8:1],,{16}6/A2,D3,6/A3,D4,6/A4,D5,
{8}6h[4:1]/A5,{4},{8}3-1[8:1],3,7-5[8:1],7/A1,3-5[8:1],
3/A5,7-1[8:1],7/A5,3-1[8:1],3/A1,7-5[8:1],{4}7/A1,
{8}A5,3/4,4/3,4/3,5x/2x,5/2,5/2,5/2,
6x/1x,6/1,6/1,6/1,7x/8x,8/7,8/7,8/7,
{4}1bx/6xh[2:1],2bx,{8}3bx,5,,5h[8:5],
{4}4,3,{8}2,6,,3,
{16}6,5,{8}6,{16}3,4,{8}3,{16}4,5,3,6,4,5,4,5,
{8}4,5/4,,5/4,{4}5-1[8:1]/4-8[8:1],5b/4b,
{8}2/7b,3,3,6,2,7,8,3,
4b/5,6,{4}2pp4[8:1]/6pp8[8:1],2/6,1x/5x,
{8}4/8b,3,2/6,5,6/2b,5,3/7x,2,
,8/3-1[8:1],,8/3,{4}8bw4[8:1]*-4[8:1],8bx,
E
