&title=Witches Night
&artist=Liz Triangle
&first=0
&des=NaOH
&clock_count=4
&lv_6=13+
&inote_6=(154)
{1},Cf/E2/E4/E6/E8,
{8}3h[8:3],,,4,4h[4:1],,5<2[8:4],,7h[4:3],,,,,,
2^7-3^6b[4:4],,8h[4:3],,,,,,,,8,8,37,37,26,26,15,15,
{16}
2x,4,3,4,3,,25,,E8/3-8[8:1],,E7,,E6,,,,
7x,5,6,5,6,,74,,E2/6-1[8:1],,E3,,E4,,,,
2x,4x,3x,5,4,6h[16:3],,,5x,6x,4x,5,3,4h[16:3],,,
{8}3,3h[8:1],5,5h[8:1],7,7h[8:1],1,1h[8:1],
2,2,34,34,56,56,78,78,
1b<6[4:1]/2b,,3,,4>1[4:1],,5,,7V53[4:1],,3V17b[4:1],,E5,E4,E3,,
8<5[8:1]/2,,2,,1>4[8:1]/8,,8,,7-3[8:1],3-7[8:1],7,,5w1[8:1],,5,,
6^3[8:1]/2,,1,,8>3[8:1]/7,,6,,7v2[4:1],,2>7[8:3],,B1,C,B5,,
2-4v5-7[8:4],,1,,8,,2v4b[4:1]*^7b[4:1],,,,,,
6^3[8:1],,1w5b[8:1]/6,,1b/Cf,,,,(308){4}37,15,37,15,(154){8}3bs7b[8:1]/A7f,,,,
3x>8[8:1],3x,4,5,6V84[4:1],6,1,2,
3-7[8:1],3,4,5,5x>1[8:1]*<1[8:1],4x/6x,5x,,
6<1[8:1],6,5,4,3V14[4:1],3,7,6,
5-1[8:1],6,5-7[8:1]/4-8[8:1],,45,,1q5[8:1]/2^4[8:1],,
1^7[8:1]/2p6[8:1],,12,,3V52[4:1],3,5,6,7-3[8:1],7,3,4,5xv2[8:1]*v8[8:1],4x/6x,5x,,
3^6[8:1],6,3,,7^2[8:1],2,7,,3-5[12:1],3,7-1[12:1],7,2-6[8:1],,(308)1b/2b,,,,
(154)
8x<5-1[4:2],,,,1>4-8b[4:2],,,,E2,,E3,,E4,,
4x-8[8:1]`6x-2v3v1b[4:3],,4x,,,,B6/E6,,,,7h[4:1],,5h[4:1],,1h[4:1],,2<4[4:3],,
C,,,,4qq4b[4:2],,,,E6/D6,,E7/D7,,E8/D8,,1p3[4:1]/8x,,
3^6[4:1],,,7,7h[4:1],,8,,3q5[4:2]`7q1b[4:2],,,,,,,,Cf/E7/E3,,,1x/5x,37,,,
7-1[8:1],1-5-3[4:1],7,3,2,2-6[8:1],,2b/8b,,
8h[4:1]/4h[4:1],,,26,4h[4:1]/8h[4:1],,,26,15,48,15,26,
3-1[12:1]/7-5[12:1],,7-2[8:1]`3v6>8b[4:3],,3b/7b,,,,8q4[8:1],7,
6pp7[8:1]`6!qq6>8b[4:3],,6b,,,,8-4[8:1],7,6V42[4:1]`6!V82b[4:1],,6b,,,,
38,47,6,5,34,2,18,75,6,47,3b/8b,,
2^7[8:1],,2h[8:1],,3^6[8:1],,3h[8:1],,
2V85[4:1],,2h[8:1],,3^4-8[6:1],,3h[8:1],,
1V74[4:1],,1h[8:1],,3V58[4:1],,3h[8:1],,
2-6[8:1],,2-8[8:1]*-7[8:1],,2-4[8:1]*-5[8:1],,2b,,
2x>6v4[4:6]/6x<2v8[4:6],,,,,,,,,,,,,,,,
3p6[4:2],,,,6>8[4:3],,,,7h[8:3],,,,E6/B6,,,
5-7[12:1],5-1[8:1],,,4-8[8:1],4-2[8:1],,,
5-8[8:1],5-2[8:1],,,1qq7b[8:1],1pp3b[8:1],,,,
8-5[8:1],,18,1-6[8:1],1-4[8:1],,,8-5b[8:1],8-3b[8:1],,,4,26,37,8-6[12:1]/4,,
4-2[12:1]/8,,7-5[12:1]/4,,3>8[8:1]/7,,7<4[8:1]/3,,
2^7[8:1]/7,,6^3[8:1]/2,,2-7[8:1]/6,,
6^1[8:1]/2^5[8:1],,2bpp4>8[4:5]`6bpp8<4b[4:5]/A4f/A8,,,,,,,,,,,,,,,
6,57,57,8,17,1-3[8:1]/7-3[8:1],,1b/7b<4[8:1],,
2x-8[12:1]/7x,,6V48[4:1]/2,,46,,3,2,1-4[8:1],2,6^1[8:1],5,3pp3b[6:1]*p3b[6:1],,,,
6x<1[8:1],6x,5,4,3-1[12:1],,34,,8-5[8:1],5<8[8:1],8b,,1-4[8:1],4>1[8:1],1b,,
7x-3[8:1],,7-5[8:1]/1-5[8:1],,1>4[8:1]/7,,7<4[8:1]/1,8,1-5[8:1],2,7-3[8:1],6,7w3b[8:1],,,,
4x/5x-1[8:1],,2,3,4x/5x-1[8:1],,2,3,4-8[8:1],8V25[4:1],4,,7-3b[8:1],,7b,,
2x-4[12:1]/6x-8[12:1],,2^3-6[6:1]`6^7-2b[6:1],,26,,,
2x-4[8:1],4-2-8>4[8:3],2,5-7-5[4:1],,5-1[8:1]*V31[8:1],,,,
7-5[8:1],5V73[4:1],7,2,1V35[8:1]*V75[8:1],,1,,
8-5[8:1]/7-5[8:1],16,7b/8b,,1-4[8:1]/2-4[8:1],38,1b/2b,,
7x-1[12:1]/3x-5[12:1],,7^6-2[6:1]`3^2-6b[6:1],,37,,,
7x-5[8:1],5-7-1<5[8:3],7,4-2-4[4:1],,4-8[8:1]*V68[8:1],,,,
3>8[8:1]/4,,6,5,3>8[8:1]/4,,6,5,
4-7[8:1]/3,3,2,1h[4:1],,4-7[8:1],3,2h[4:1],,
5<8[8:1],4,3h[4:1],,6<1[8:1],5,4h[4:1],,7^2[8:1],6,5h[4:1],,
8>3[8:1],7,6h[4:3],,E1,E8,E7,E6,E5,E4f,,
{16}
3x,4x,2,5,1-5-3[4:1],6,8,,1/E6,,E7,,E8,,,,
7x,8,6,1,5-1-7[4:1],2,4,,5/E2,,E3,,E4,,,,
7,5,6,4,7,5h[16:3],,,6,4,5,3,4,2h[16:3],,,
4,,24,,4,,14,,4-8[8:1]/1,,4,,1,,2,,
3,4,2,5,1-5[8:1],6,8-4[8:1],,1>4[8:1],,8,,1b,,,,
6,5,7,4,8-4[8:1],3,1-5[8:1],,8<5[8:1],,1,,8b,,,,
3,4,2,6,5,7h[16:3],,,1,8,2,6,5,7h[16:3],,,
{8}8,8,17,17,26,26,35,35,
3qq3[4:2]/5pp5[4:2],,,,,,,,
26,48,26,48,3bV14b[4:1]*pp4b[4:1]/7b,,,,
