&title=Heart Scissors
&artist=ウォルピスカーター
&first=0
&des=曇切
&des_5=
&lv_5=13
&inote_5=(154){4},{8},,,,,,4h[8:1],
5,4h[8:1],5,3h[8:1],5,3h[8:1],5,
4h[8:1],5,4h[8:1],5,3h[8:1],5,3h[8:1],5,
2h[8:1],4,2h[8:1],3,2h[8:1],1,2h[8:1],8,
2h[8:1],7,2h[8:1],6,2h[8:1],5,{4}3b<6[8:1],
8>3[8:1],5<8[8:1],2>5[8:1],7,
{8}3,4,5,6,{4}7h[4:1],5>2[8:1],
8<5[8:1],3>8[8:1],6>3[8:1],1,
{8}5,4,3,2,{4}1h[4:1],8<4[4:1],
4>8[4:1],8<4[4:1],4>8[4:1],8,
{8}4,4,6,6,{4}5/7,2-4[8:1]/4-8[8:1],
,7-5[8:1]/5-1[8:1],,8h[4:1],
{2}4-8[8:1],{12}A2,A3,A4,A5,A6,A7,
{8}1,1,{4}1/4<8[4:1],{8}2,3,{4}4,
{8}6/5,6,{4}6/1V38[4:1],{8}8-4[8:1],7,{4}6,
{8}8,8,{4}1/7h[4:1],{8}5,5,6,3,
2/4,2,{4}2/Ch[2:1],B2/B3/E3,B7/B6/E7,
{8}4,3,{4}2>5[8:1],{8}6,7,{4}8<5[8:1],
{8}1,2,{4}3qq8[8:3],{8}7-4[8:1],6,{4}7,
{8}7V15[4:1],6,{4}3,{8}3V51[4:1],2,{4}7,
{8}6h[4:1],2,5h[4:1],1,6h[4:1],2,5h[4:1],1,
{4}6h[2:1],B7,5h[2:1],B4,
6h[2:1],E8,5h[4:1],E4,
1<6[8:1],3,3>8[8:1],5,
5>2[8:1],7,7<4[8:1],1,
{16}8>3[8:1],,,6h[16:3],{4}8,{16}6<1[8:1],,,4h[16:3],{4}6,
{16}4<7[8:1],,,2h[16:3],{4}4,{16}2>5[8:1],,,8h[16:3],{4}2,
{12}7,7,5,6,,,2,2,4,3,,,7bh[6:1],
4,4,6bh[6:1],3,3,{4}5bh[4:1]/2-6[8:1],2b,
{8}4-2[8:1],3,4/5-1[8:1],6,{4}5/3-8[8:1],{8}3-5[8:1],6h[8:1],
3-1[8:1],7h[8:1],3,5h[8:1],3,8,{4}4b/6bh[4:1],
{8}1-3[8:1],1-7[8:1],{4}1-5[8:1],{32},,,,,,,,8x,7x,{16}6x,{8}4h[8:1],
{32}8x,7x,{16}6x,{8}3h[8:1],{4}5qq5[4:1]*pp5[4:1],{2}5,
{8}3h[8:1],5h[8:1],{16}1,,,7,{8}1-5[8:1],7-3[8:1],1,7,
,2,{16}8,,,2,{8}8-4[8:1],2-6[8:1],8,2,
,1,{4}4/2h[4:1],{8},8,{4}5/7h[32:21],
{32}3,4,5,6,,8,1,2,3,4,5,6,,8,1,2,{4}3/Cf,Cf/B6/B3,
{8}5-7[8:1],6,5/4-8[8:1],3,{4}4/6-1[8:1],{8}6-4[8:1],3h[8:1],
6-8[8:1],2h[8:1],6,4h[8:1],6,1,{4}5b/3bh[4:1],
{8}8-6[8:1],8-2[8:1],{4}8-4[8:1],{32},,,,,,,,1x,2x,{16}3x,{8}5h[8:1],
{32}1x,2x,{16}3x,{8}6h[8:1],{4}4pp4[4:1]*qq4[4:1],{2}4,
{8}6h[8:1],4h[8:1],{16}8,,,2,{8}8-4[8:1],2-6[8:1],8,2,
,7,{16}1,,,7,{8}1-5[8:1],7-3[8:1],1,7,
,8,{4}5/7h[4:1],{8},1,{4}4/2h[4:1],
{8}5b,7b/8b,5b/2b,8b/7b,{4}3b/4b,4b/3b>8[8:1],
{1}3b/B7f/B6/Ch[1:1],
{8}2>5[8:1],2,8-4[8:1],8,{4}3>8[8:1],3,
6<1[8:1],6/4,2>5[8:1],2/8,
{8}7,1,5,3,7-3[8:1],1-5[8:1],7,1,
{4}8<4[4:1],4>8[4:1],8<4[4:1],3,
{8}1-5[8:1],1,7<4[8:1],7,{4}2-6[8:1],2,
7<4[8:1],7/1,3>8[8:1],3/5,
{8}2,8,4,6,2-6[8:1],8-4[8:1],2,8,
{2}3>8[8:1],6>3[8:1],
1<6[8:1],{8}2-6[8:1],8-4[8:1],2,8,
{4}2>5[8:1],7>2[8:1],4<7[8:1],1>4[8:1],
6<1[8:1],3,{8}7-3[8:1],1-5[8:1],7b,1b,
E
