&title=ブラック★ロックシューター (Tv size)
&artist=ryo(supercell)/初音ミク
&first=0.57
&des=Tail★R
&lv_5=13
&lv_6=13
&inote_5=(165)
{1},
{16}5,4,3,2,1pp5[2:1],,,,7,,,,7,,,,
{4}7,8qq5[2:1]/4,4,4,
{8}3,2,1pp4[2:1],,6,,6,,
{8}6,,5b-1[8:1],,5/3b-7[8:1],,8b-4[8:1]/3,,
{8}6-2[8:1]/8b,,6/5qq8[2:1],,1,,8,,
{8}7,,6pp1[2:1],,5,,4,,
{8}3,,2h[8:7]/8,8,8,8,7,7,
{16}7,,7,,3/6,,4,5,4,,1/8,,1,7,1,7,
{16}2,6,2,6,1b-5[8:1]/7,,,,1,,,,2-5[8:1]/6,,7,,
{16}2/8,,,,3/5,,2,6,1,,8/7,,1,2,3>8[8:1],,
{16}5,,5,,7<4[8:1],,1,,7,,2,,3-8[8:1],,6,,
{16}3,,7,,1/6,,2,5,3,,4/3,,2,5,2,5,
{16}1,6,1,6,8b-4[8:1],,,,8/2,,,,7-4[8:1]/3,,2,,
{16}7/1,,,,6/4,,7,3,8,,1/2,,8,7,6<1[8:1],,
{16}4,,4,,2-4[8:1],,8,,8,,8,,1-5[8:1],,7,,
{16}7,,7,,4/6,,7,3,8,,1/2,,3,4,5,6,
{16}8,7,6,5,4/2bv5[8:1],,,,2/8,,,,1q5[8:1]/8,,7,,
{16}6,,,,3/8,,2,1,2,,3/8,,7,6,5v7[8:1],,
{16}2,,2,,3>8[8:1],,8,,3,,7,,6-1[8:1],,4,,
{16}6,,3,,2/8,,3,7,4,,5/6,,7,4,7,4,
{16}8,3,8,3,7bv4[8:1],,,,7/1,,,,8p4[8:1]/3,,2,,
{16}1/8,,,,2/5,,8,7,8,,5/2,,3,2,1>4[8:1],,
{16}7,,7,,8-4[8:1],,2,,2,,2,,7-5[8:1],,3,,
{16}3,,3,,4b,6,4,6,3b,5,3,5,2b,8,1,7,
{16}3b,5,4,6,2pp5[2:1],,,,8,,,,7,,7,,
{16}6,,6,,5pp1[2:1],,,,2,,,,3,,3,,
{16}4,,4,,8h[16:1]/2b,,,4h[16:1]/6b,,,1b/7h[16:1],,,5b/3h[16:1],,,
{16}2bqq5[2:1],,2b,,8,,8,,7,,7,,6,,6,,
{16}5,,5,,4qq8[2:1],,,,5,,,,6,,6,,
{8}7,7,8qq4[2:1],,1,,2,2,
{16}3,,3,,4b-8[8:1],,,6-2[12:1],6,,6b,,,1pp5[1:1],1,,
{8}1b,,8h[8:1],,8h[8:1],,7h[8:1],,
{8}6h[8:1],,4qq1[2:1],,8,,7,7,
{8}6,5,5pp8[2:1],,4,,3,3,
{8}2,2,1>5[2:1],8h[1024:1],8h[1024:1],8h[1024:1],7h[1024:1],7h[1024:1],
{16}6h[1024:1],,6h[1024:1],,4,7,4,7,4,7,4,7,8h[1024:1]/3b>8[8:1],,,,
{8}3,,1-3[8:1]/8,,1/7,,1-5[8:1]/8,7,
{8}6/1,7,8-6[8:1]/1,,8/2,,8-4[8:1]/1,2,
{16}3/8,,2,,1/8,,2,7,2,,1/8,,3,6,3,6,
{16}4,5,4,5,4b-8[8:1],,,,,,7h[8:3],,,,1b,,
{8}1b,,7bv4[8:1]/8bV64[8:1],,7/8,,1b-5[8:1]/2bv5[8:1],,
{8}1/2,,1bs5[4:1]/7h[8:3],,,,7b,,
{8}6/8,6/8,6<1[8:1]/8,,6/4,4-8[8:1],,4/8,
{8}7,6pp1[2:1],,,2,,3,,
{16}4,,2b-5[8:1]/8b-4[8:1],,2/8,,,,,,7bv4[8:1]/1bp5[8:1],,7/1,,,,
{16},,6b-8[8:1]/4b-1[8:1],,4/6,,,,,,3bqq1[8:1]/5bv8[8:1],,5/3,,,,,,
{8},2b-5[8:1]/8,,2,7bv4[8:1],,7,
{8},3b>6[2:1]/6,,,5,,5,,
{24}5,,,,,,1bV35[8:1]/8,,,,,,8b,7b,6b,,,,7bV53[8:1]/8,,,,,,
{24}8b,1b,2b,,,,5bs1[4:1]/2h[8:3],,,,,,,,,,,,2b,,,,,,
{8}3/1,3/1,3>8[8:1]/1,,3/5,5-1[8:1],,5/1,
{8}2,3qq8[2:1],,,7,,6,,
{8}5h[8:1],,3/7,,2/8,1h[4:1]/7bV58[4:1],,7,
{8},,2/1,2/1,3/5,7/8,5/6,1/2,
{8}3-8[8:1]/8-3[8:1],3/8,3V15[1:1]/8V25[1:1],,,,,,
{1},
{8}2-5[8:1]/8,,2,,7v4[8:1]/1,7,,1q5[8:1],
{8},1,8qq4[2:1],,,2,2,2,
{32},,,,,,,,8b/7b,1/6,2/5,3/4,,,,,,,,,1b/2b,8/3,4/7,5/6,,,,,,,,,
{32}8b/1b,2/7,3/6,4/5,,,,,{8},4b,3b/5b,2b/6b,1b/7b,,
{4}8bw4[8:1],8b,,,
&inote_6=(165.001)
{1},{4},
(165)
{4}1bV35[2:1],5,6,7,
{4}8qq4[2:1],4,3,2,
{4}2-5[8:1],5,6-2[8:1],4h[1:1],
{4}3bx,5b,1b,7b,
{4}8V62[2:1],2,3,4,
{4}5qq1[2:1],1,8,7,
{8}6/8,6,6/1,6,6/2,6,6/3,6,
{16}6/4,,3,5,4,,2/6,,1,8,2,7,3,6,4,5,
{4}Cf,3-8[8:1],6-3[8:1],1-5[8:1],
{4}7-4[8:1],2-7[8:1],5-1[8:1],E4,
{8}1xV35[4:1],,5-2[8:1],6,6-1[8:1],,1,2,
{8}3V51[4:1],,1-4[8:1],8,7-3[8:1],,7/3,,
{4}2b-5[8:1],6-1[8:1],3-6[8:1],8-4[8:1],
{4}2-5[8:1],7-2[8:1],4-8[8:1],E6,
{32}3-1[32:3],,,,,,,,A4,B4,C,B8,A8,,,,6-8[32:3],,,,,,,,A5,B5,C,B1,A1,,,,
{32}3-5[8:1],,,,,,,,A6,B6,C,B2,A2,,,,{16}1x/7x,,2,4,3,,6,5,
{8}7bh[4:1],,8-4[8:1],1,2-5[8:1]/8,,6-2[8:1],,
{8}6-1[8:1],,5-8[8:1],4,3-7[8:1]/5,,3/7,,
{8}8-3[8:1],7,6,5,4-8[8:1],3,2,1,
{16}8/7^4[8:1],,,2,2,,3h[8:1],,5,3,6,4,7,,1/8,,
{8}2b^7[8:1],,7/2,6-2[8:1],,6/2,3-8[8:1],,
{8}8/3-7[8:1],,7/3,6^3[8:1],,6/3,2h[4:1],,
{4}4-8[8:1],3-7[8:1]/4,5w1[8:1]/3,5,
{16}2,4,3,4,2,,8,1,7,1,8,,3,4,2/5,,
{4}1>4[4:1]/8,7,6^1[4:1],5,
{8}4^7[4:1],,3,3,2w6[8:1],,2,,
{16}4/7,,5,6,4,,3/8,,2,1,2,3,2,,4,5,
{8}3x>6[2:1],E6,E7,E8,E1,E2,E3,E4,
{8}5^2[4:1],,6,6,7^4[4:1],,8,,
{8}1^6[4:1],,2,2,3w7[8:1],,3,,
{16}1/5,,3,4,2,,1/8,,6,5,7,,1/8,,4,5,
{8}3h[8:1],E6,3h[8:1],E7,3h[8:1],E8,3h[8:1],D7,
{4}8<5[4:1]/1,2,3^8[4:1],4,
{8}5^2[4:1],,6,6,7w3[8:1],,7,,
{8}5>7[2:1],8x,8x,8x,8x,8x,8x,8x,
{16}2,1,8x/3x,,4,5,3x/6x,,D1f,,,,2,4,3,,
{8}4^7[4:1],,3,3,2^5[4:1],,1,,
{8}8^3[4:1],,7,7,6w2[8:1],,6,,
{16}8-4[8:1]/4,,,1,8,,2,,3,4,2,5,1,6,8,7,
{1}1b-6-3-8-5-2[8:5],
{16}1/3,,2,,1/8,,7-4[8:1],8,6,1,7,,1,,2,,
{16}3/5,,4,,5/6,,3-8[8:1],4,2,5,3,,6,,7/1,,
{16}2-6[8:1],,1/3,,2,,8,,7,8,7,6,7,,5/6,,
{16}4b,5,4,5,3b,5,4,5,2b,5,4,5,1b,5,4,5,
{16}8-3[8:1],,6,6,8,,7,,4-1[8:1],,5,5,4,,6,,
{16}7^2[8:1],,3,3,7,,4,,1-6[8:1],,4,4,1,,3,,
{16}3,5,4,5,6,5,7^4[8:1],,8,,1-5[8:1]/7,,2,,1/6b-4-7-3-8-2[8:5],,
{4},,,Cf,
{16}8/6,,7,,8/1,,2v5[8:1],1,3,8,2,,8,,7,,
{16}6/4,,5,,4/3,,6^1[8:1],5,7,4,6,,3,,2/8,,
{16}7-3[8:1],,8/6,,7,,1,,2,3,2,1,2,,4/3,,
{16}5b,3,5,3,6b,3,5,3,7b,3,5,3,8b,3,5,3,
{16}1-5[8:1],,2,8,1,,7x,,6-3[8:1],,4-1[8:1],,6,,4x,,
{16}7-4[8:1],,6,5,7,,2,,3-8[8:1],,5-1[8:1],,3,,5,,
{16}4x,4x,8,,3h[4:1],,5,,6-3[8:1],,3-8[8:1],,8-5-2-7-4[32:17],,2,,
{4}1hx[8:1],1hx[8:1],2hx[8:1],3hx[8:1]/5hx[8:1],
{16}8-4[8:1],,7,1,8,,2x,,3-6[8:1],,5-8[8:1],,3,,5x,,
{16}2-5[8:1],,3,4,2,,7,,7v4[8:1],,8^3[8:1],,7,,8,,
{32}8bx,7x,6x,5x,4x-8[32:3],,,,,,,,8bx,1x,2x,3x,4x-8[32:3],,,,,,,,8bx,7x,6x,5x,4x-8[32:3],,,,
{8},8b/4b,1b,2b,3b-7[8:1],,3b/1bw5[8:1],,
{32}1bx,B1,Cf,B5/B6/B4,,,,,
