&title=AiAiA
&artist=Ado / kikuo
&first=1.74
&des=hazz
&lv_5=14
&inote_5=(138)
{24}
1x,2x/8xh[24:11],,,,,{8},,4xqq4[2:1],,,,
B2,,,,A3`E4`B4`B5`E6`A6,,,{32},,27,36,
{1}
4b<8>1>2>3<4[1:1]/5b>1<8<7<6>5[1:1],
{16}
,,,,,,,,2,,2,,3h[16:1]/5h[16:1],,3h[16:1]/5h[16:1],,
{16}2>4[8:1],,1,,7>1[8:1],,8,,2,,3,3h[16:3],,,{24}1,8,7,
{16}6>4[8:1],,7,,3>1[8:1],,2,,8,,7,7h[16:3],,,{24}8,1,2,
{16}3<5[8:1],,2,,6<8[8:1],,7,,1,,2,2h[16:3],,,{24}1,8,7,
{16}6>4[8:1],,7,,3>1[8:1],,2,,8,,7,7h[16:3],,,{24}8,1,2,
{16}3,,6,5,7,,82,,3,4,2,2h[16:3],,,{24}1,8,7,
{16}6,,3,4,2,,17,,6,5,7,7h[16:3],,,{24}8,1,2,
{16}3,,6,5,7,,82,,3,4,2,2h[16:3],,,{24}1,8,7,
{16}6,3,4,,25,,25,,3,4,2,2,4,3,5,5,
2h[96:1],,3h[90:1],,4h[84:1],,5h[78:1],,6h[72:1],,7h[66:1],,8h[60:1],,1h[54:1],,
2h[48:1],,3h[42:1],,4h[36:1],,5h[30:1],,6h[24:1],,7h[18:1],,8h[16:1],,1h[12:1],,
{24}
2,,2,4,,4,3,,3,5,,5,4,,4,6,,6,5qq5[4:1],,5,7,,,
{16}
6pp5[4:1],,,,6,,,,2,,4/1,,4-8[8:1]/1,,,,
4qq5[4:1]/3,,,,7,,,,6<8[8:1],,,,3,,4,,
5pp4[4:1]/7,,,,3,,,,2,,3,4,,,5,,
5pp4[4:1]/6,,,,2,,,,3>1[8:1],,,,6,,5,,
4h[8:1]/1,,2,,3h[8:1],,2,,1-6[8:1]/4V28[4:1],,,,,,,,
{8}
5-3[8:1],5,8-3[8:1],8,6-2[8:1],7,8,,
4-6[8:1],3,2-6[8:1],1,3-8[8:1],2,1,,
7v4[8:1],7,5>2[8:1],5,1v6[8:1],1,3,3h[8:1],
{32}
8,1,2,3,4,5,6,7,{8}8-3[8:1]*-5[8:1]/C,,8b,,{16}6,2,5,3,
{8}
4-7[8:1],4,3-8[8:1],3,5-8[8:1],5,4,4,
6-8[8:1],8-3[8:1],2,3p5[16:3],4-1b[8:1],,,,
2>5[8:1],3h[8:1],2,1,6>3[8:1],7h[8:1],6<8[8:1],7-5[8:1],
7p3[8:1],,,1x-5b[8:1],A5h[8:1],,,,
{16}
7<5[8:1],7,,4,4v6[8:1],,,,3<5[8:1],3,,2,2h[8:1],,,,
{12}7,5,6,2,4,3,{24}8,1,8,1,8,1,8,1,8,{16}27,,
{8}
1v2[8:1],,,,1v3[8:1],,,,1v4[8:1],,,,1-5[8:1],,,6x,
74,1b/2b,3b/5b,7b/4b,8b/1b,3b/5b,8b-5[8:1]/1b,8xb-3[8:1],8xb-4[8:1],8xb,8xb,2b,{32}2xw6b[34.5#48:1],3,4,5,6,7,8,1,{8}2h[2:1]/6h[4:1],,
,,,,{48}2xb,B2f,C,B6,,,,,,,,,{16},,,,
75,,1,8,2-4[8:1],,4-1[8:1],,1-5[8:1],,5-1[8:1],,8,,6,,
8,,1,8,2-8[8:1],,8-3[8:1],,3-5[8:1],,5-1[8:1],,6,,7,,
8,,1<6[8:1],8,2,,3,,4,,5>2[8:1],4,6,,7,,
1v6[8:1],,8,,17,,8h[8:1],,{32}5b,4,3,2,1,8,7,6,5,4,3,2,{16}1,,
5-2[8:1],,6v4[8:1],,5,,6,,1-5[8:1],,2-8[8:1],,1,,2,,
6,,6,5,7,,2h[8:1]/8,,1,2,4,3,5h[8:1],,6,,
17,,3,5,4h[8:1],,3,,28,,6,5,7h[8:1],,8>4[4:1],,
5,,6,,7,,8,,3,1,2,4,3,5,4,6,
5,,8,1,7-5[8:1],,5-8[8:1],,8-4[8:1],,4-8[8:1],,1,,3,,
2,,8,1,7-1[8:1],,1-6[8:1],,6-4[8:1],,4-8[8:1],,3,,2,,
1,,8>3[8:1],1,7,,6,,5,,4<7[8:1],5,3,,2,,
8v3[8:1],,1,,28,,1h[8:1],,{32}4b,5,6,7,8,1,2,3,4,5,6,7,{16}8,,
24,,4-2[8:1],3,5,,64,,8-4[8:1],,7,1,8,,3,,
2-5[8:1]/5,,3,4,2,,6,,6,8,7,5,6,4,5,3,
4xpp5[16:3],,,,,,3,,4xpp5[16:3]*pp5[16:3],,,3,4,,2,,
4xpp5[16:3]/3,,,,,,3,,4xpp5[16:3]*pp5[16:3],,,3,4,,2,,
4xpp5[16:3]/3,,,,,,3,,4xpp5[16:3]*pp5[16:3],,,3,4,,2,,
{16}
2h[8:1],,4h[8:1],,5h[8:1],,7h[8:1],,6p2[32#128:5],,,,,,,,,,,,,,,,,,,,8xV61b[4:1],,,,
1-5b[8:1],,5-2b[8:1],,2-4b[8:1],,,,3h[4:1],,,,4xV25[4:1],,,,
5-1[8:1],,1-6[8:1],,6-8[8:1],,,,7h[4:1],,,,8xV61b[4:1],,,,
1-5b[8:1],,5qq3b[8:1],,3,,,,2h[4:1],,,,4xV25[4:1],,,,
5-1[8:1],,1qq7[8:1],,7,,,,6h[4:1],,,,8xV61b[4:1],,,,
1p5b[8:1],,5qq3b[8:1],,3,,,,2h[4:1],,,,4xV25[4:1],,,,
5p1[8:1],,1qq7[8:1],,7,,,,6h[4:1],,,,8xpp1b[4:1],,,,
1p5b[8:1],,5qq3b[8:1],,4,,,,2h[4:1],,,,4xpp5[4:1],,,,
5p1[8:1],,1qq7[8:1],,8,,,,6w2[8:1],,,,,,,,
1x>4[8:1]/3x,8,7,6,1,,,,8x>3[8:1]/3x,7,6,5,8,,,,
4x-8[8:1]/7x,3,2,1,4,,,,1x-5[8:1]/7x,2,3,4,1,,,,
6<1[8:1],4,7,5,8,,,,6<1[8:1],4,7,5,8,,,,
3>8[8:1],5,2,4,1,,,,3>8[8:1],5,2,4,1,,,,
{32}
1b,2x-5b[16:1],3x,,8b,7x-1b[16:1],6x,,2b,,,,7b,,,,
4b,3x-5b[16:1],2x,,8b,7x-4b[16:1],6x,,3b,,,,7b,,,,
1b,2x-8b[16:1],3x,,7b,6x-1b[16:1],5x,,2b-5b[16:1],,,,6b-4b[16:1],,,,2b-6b[16:1],,,,6b,,,,2b,,,,7b,,,,
{12}
8xb/5,8,4,37,3,4,2/5b,5,1,78,7,5,6/4b,4,5,6b/3b,6,5,{24}7b/4,8,1,2,3,4,5,6,7,8,,,
{16}3,,6,5,7,,82,,3,4,2,6h[16:3],,,{24}2,3,4,
{16}56,,6,5,7,,17,,8,2,4,3h[16:3],,,{24}1,8,7,
{16}6,,3,4,2,,17,,6,5,7,3h[16:3],,,{24}7,6,5,
{16}43,,3,4,2,,82,,1,7,5,6h[16:3],,,{24}8,1,2,
{16}3-8[8:1],,25,,4,,7,,6,6,5,7h[16:3],,,{24}5,4,3,
{16}2,,7,8,6,,54,,3,3,4,2h[16:3],,,{24}1,8,7,
{16}6-1[8:1],,47,,5,,2,,3,3,4,2h[16:3],,,{24}4,5,6,
7,,3,4h[24:3],,,5,,,17,,,83,,6,5h[8:1],,,4,,,28,,,
16,,3,4h[24:3],,,5,,,17,,,83,,6,5,,2,1-5[16:1],,3,4,,8b/1b,
{1},
E
